TORRENTS45.XYZ

Скачать Norio Maeda & Jiro Inagaki - This Is Jazz-Rock (1968) 2008, Nippon Columbia [FLAC|Lossless|tracks + .cue] <Jazz-Rock, Jazz Fusion>


Norio Maeda & Jiro Inagaki - This Is Jazz-Rock (1968) 2008, Nippon Columbia
Жанр: Jazz-Rock, Jazz Fusion
Издание: Nippon Columbia - COCP-34682
Продолжительность: 00:38:34

Кодек: FLAC (tracks+.cue)
Битрейт: Lossless
Источник (релизер): hypermelon
Страна-производитель диска: Japan
Наличие сканов в содержимом раздачи: нет

Треклист:

01. Pata Pata [3:41]
02. Mercy, Mercy, Mercy [2:52]
03. Day Tripper [3:12]
04. Snap Shot [3:29]
05. My Girl [2:31]
06. Boom Boom [3:39]
07. Watermelon Man [3:31]
08. Barock [3:09]
09. House of the Rising Sun [3:05]
10. Go Go a Go Go [3:22]
11. Soul Finger [2:57]
12. Here, There and Everywhere [3:06]

Отчёт EAC:


Exact Audio Copy V1.0 beta 3 from 29. August 2011

EAC extraction logfile from 21. March 2018, 7:19

Jiro Inagaki / This is Jazz Rock

Used drive : HL-DT-STBDDVDRW CH12NS30 Adapter: 0 ID: 0

Read mode : Secure
Utilize accurate stream : Yes
Defeat audio cache : Yes
Make use of C2 pointers : No

Read offset correction : 6
Overread into Lead-In and Lead-Out : No
Fill up missing offset samples with silence : Yes
Delete leading and trailing silent blocks : No
Null samples used in CRC calculations : Yes
Used interface : Native Win32 interface for Win NT & 2000
Gap handling : Appended to previous track

Used output format : User Defined Encoder
Selected bitrate : 1024 kBit/s
Quality : High
Add ID3 tag : No
Command line compressor : C:\Program Files (x86)\Exact Audio Copy\Flac\flac.exe
Additional command line options : -8 -V -T "ARTIST=%artist%" -T "TITLE=%title%" -T "ALBUM=%albumtitle%" -T "DATE=%year%" -T "TRACKNUMBER=%tracknr%" -T "GENRE=%genre%" -T "PERFORMER=%albuminterpret%" -T "COMPOSER=%composer%" %haslyrics%--tag-from-file=LYRICS="%lyricsfile%"%haslyrics% -T "ALBUMARTIST=%albumartist%" -T "DISCNUMBER=%cdnumber%" -T "TOTALDISCS=%totalcds%" -T "TOTALTRACKS=%numtracks%" -T "COMMENT=%comment%" %source% -o %dest%

TOC of the extracted CD

Track | Start | Length | Start sector | End sector
---------------------------------------------------------
1 | 0:00.00 | 3:40.73 | 0 | 16572
2 | 3:40.73 | 2:51.67 | 16573 | 29464
3 | 6:32.65 | 3:11.62 | 29465 | 43851
4 | 9:44.52 | 3:28.53 | 43852 | 59504
5 | 13:13.30 | 2:31.21 | 59505 | 70850
6 | 15:44.51 | 3:38.63 | 70851 | 87263
7 | 19:23.39 | 3:30.72 | 87264 | 103085
8 | 22:54.36 | 3:09.10 | 103086 | 117270
9 | 26:03.46 | 3:05.18 | 117271 | 131163
10 | 29:08.64 | 3:21.48 | 131164 | 146286
11 | 32:30.37 | 2:57.32 | 146287 | 159593
12 | 35:27.69 | 3:06.08 | 159594 | 173551

Track 1

Filename G:\EAC Files\01 - Pata Pata.wav

Pre-gap length 0:00:02.00

Peak level 98.1 %
Extraction speed 3.2 X
Track quality 100.0 %
Test CRC 80802F07
Copy CRC 80802F07
Track not present in AccurateRip database
Copy OK

Track 2

Filename G:\EAC Files\02 - Mercy, Mercy, Mercy.wav

Pre-gap length 0:00:01.89

Peak level 98.0 %
Extraction speed 1.1 X
Track quality 100.0 %
Test CRC 7DB7B6FD
Copy CRC 7DB7B6FD
Track not present in AccurateRip database
Copy OK

Track 3

Filename G:\EAC Files\03 - Day Tripper.wav

Pre-gap length 0:00:01.94

Peak level 98.1 %
Extraction speed 1.2 X
Track quality 100.0 %
Test CRC 95C36904
Copy CRC 95C36904
Track not present in AccurateRip database
Copy OK

Track 4

Filename G:\EAC Files\04 - Snap Shot.wav

Pre-gap length 0:00:01.72

Peak level 98.6 %
Extraction speed 1.3 X
Track quality 100.0 %
Test CRC FE3DA8B1
Copy CRC FE3DA8B1
Track not present in AccurateRip database
Copy OK

Track 5

Filename G:\EAC Files\05 - My Girl.wav

Pre-gap length 0:00:02.09

Peak level 97.7 %
Extraction speed 1.3 X
Track quality 100.0 %
Test CRC C7FB4CCD
Copy CRC C7FB4CCD
Track not present in AccurateRip database
Copy OK

Track 6

Filename G:\EAC Files\06 - Boom Boom.wav

Pre-gap length 0:00:01.92

Peak level 98.0 %
Extraction speed 1.4 X
Track quality 100.0 %
Test CRC B1112450
Copy CRC B1112450
Track not present in AccurateRip database
Copy OK

Track 7

Filename G:\EAC Files\07 - Watermelon Man.wav

Pre-gap length 0:00:02.04

Peak level 97.8 %
Extraction speed 1.5 X
Track quality 100.0 %
Test CRC 818B3CFB
Copy CRC 818B3CFB
Track not present in AccurateRip database
Copy OK

Track 8

Filename G:\EAC Files\08 - Barock.wav

Pre-gap length 0:00:02.00

Peak level 98.1 %
Extraction speed 1.5 X
Track quality 100.0 %
Test CRC 92E05CA8
Copy CRC 92E05CA8
Track not present in AccurateRip database
Copy OK

Track 9

Filename G:\EAC Files\09 - House of the Rising Sun.wav

Pre-gap length 0:00:01.86

Peak level 98.0 %
Extraction speed 1.3 X
Track quality 99.9 %
Test CRC C6B6AB01
Copy CRC C6B6AB01
Track not present in AccurateRip database
Copy OK

Track 10

Filename G:\EAC Files\10 - Go Go a Go Go.wav

Pre-gap length 0:00:01.72

Peak level 98.6 %
Extraction speed 1.6 X
Track quality 100.0 %
Test CRC 82757739
Copy CRC 82757739
Track not present in AccurateRip database
Copy OK

Track 11

Filename G:\EAC Files\11 - Soul Finger.wav

Pre-gap length 0:00:01.82

Peak level 97.7 %
Extraction speed 1.6 X
Track quality 100.0 %
Test CRC 95152A6B
Copy CRC 95152A6B
Track not present in AccurateRip database
Copy OK

Track 12

Filename G:\EAC Files\12 - Here, There and Everywhere.wav

Pre-gap length 0:00:02.01

Peak level 97.2 %
Extraction speed 1.6 X
Track quality 100.0 %
Test CRC 7EB789FA
Copy CRC 7EB789FA
Track not present in AccurateRip database
Copy OK

None of the tracks are present in the AccurateRip database

No errors occurred

End of status report

==== Log checksum FA59909E1E155EF6A2D1DCA7552A4485E6A0763DCADBDA56B8FE5D55B4285170 ====

Cue Sheet (.cue):


REM GENRE Jazz
REM DATE 1968
REM DISCID AE090A0C
REM COMMENT "ExactAudioCopy v1.0b3"
CATALOG 4988001947899
PERFORMER "Norio Maeda & Jiro Inagaki"
TITLE "This Is Jazz-Rock"
FILE "01 - Pata Pata.wav" WAVE
TRACK 01 AUDIO
TITLE "Pata Pata"
PERFORMER "Norio Maeda & Jiro Inagaki"
ISRC JPCO06815000
INDEX 01 00:00:00
TRACK 02 AUDIO
TITLE "Mercy, Mercy, Mercy"
PERFORMER "Norio Maeda & Jiro Inagaki"
ISRC JPCO06815010
INDEX 00 03:39:06
FILE "02 - Mercy, Mercy, Mercy.wav" WAVE
INDEX 01 00:00:00
TRACK 03 AUDIO
TITLE "Day Tripper"
PERFORMER "Norio Maeda & Jiro Inagaki"
ISRC JPCO06815020
INDEX 00 02:49:71
FILE "03 - Day Tripper.wav" WAVE
INDEX 01 00:00:00
TRACK 04 AUDIO
TITLE "Snap Shot"
PERFORMER "Norio Maeda & Jiro Inagaki"
ISRC JPCO06808380
INDEX 00 03:10:08
FILE "04 - Snap Shot.wav" WAVE
INDEX 01 00:00:00
TRACK 05 AUDIO
TITLE "My Girl"
PERFORMER "Norio Maeda & Jiro Inagaki"
ISRC JPCO06815030
INDEX 00 03:26:46
FILE "05 - My Girl.wav" WAVE
INDEX 01 00:00:00
TRACK 06 AUDIO
TITLE "Boom Boom"
PERFORMER "Norio Maeda & Jiro Inagaki"
ISRC JPCO06815040
INDEX 00 02:29:27
FILE "06 - Boom Boom.wav" WAVE
INDEX 01 00:00:00
TRACK 07 AUDIO
TITLE "Watermelon Man"
PERFORMER "Norio Maeda & Jiro Inagaki"
ISRC JPCO06815050
INDEX 00 03:36:60
FILE "07 - Watermelon Man.wav" WAVE
INDEX 01 00:00:00
TRACK 08 AUDIO
TITLE "Barock"
PERFORMER "Norio Maeda & Jiro Inagaki"
ISRC JPCO06815060
INDEX 00 03:28:72
FILE "08 - Barock.wav" WAVE
INDEX 01 00:00:00
TRACK 09 AUDIO
TITLE "House of the Rising Sun"
PERFORMER "Norio Maeda & Jiro Inagaki"
ISRC JPCO06815070
INDEX 00 03:07:20
FILE "09 - House of the Rising Sun.wav" WAVE
INDEX 01 00:00:00
TRACK 10 AUDIO
TITLE "Go Go a Go Go"
PERFORMER "Norio Maeda & Jiro Inagaki"
ISRC JPCO06808390
INDEX 00 03:03:39
FILE "10 - Go Go a Go Go.wav" WAVE
INDEX 01 00:00:00
TRACK 11 AUDIO
TITLE "Soul Finger"
PERFORMER "Norio Maeda & Jiro Inagaki"
ISRC JPCO06815080
INDEX 00 03:19:61
FILE "11 - Soul Finger.wav" WAVE
INDEX 01 00:00:00
TRACK 12 AUDIO
TITLE "Here, There and Everywhere"
PERFORMER "Norio Maeda & Jiro Inagaki"
ISRC JPCO06815090
INDEX 00 02:55:31
FILE "12 - Here, There and Everywhere.wav" WAVE
INDEX 01 00:00:00

Отчёт auCDtect Task manager:


-----------------------

DON'T MODIFY THIS FILE

-----------------------

PERFORMER: auCDtect Task Manager, ver. 1.6.0 RC1 build 1.6.0.1
Copyright (c) 2008-2010 y-soft. All rights reserved
http://y-soft.org

ANALYZER: auCDtect: CD records authenticity detector, version 0.8.2
Copyright (c) 2004 Oleg Berngardt. All rights reserved.
Copyright (c) 2004 Alexander Djourik. All rights reserved.

FILE: 12 - Here, There and Everywhere.flac
Size: 18867984 Hash: B915EDFED35C63FF665047075D55FA9B Accuracy: -m0
Conclusion: CDDA 100%
Signature: 410C151E1A98343FDFC6E545AC9B48BFAC2587B8
FILE: 11 - Soul Finger.flac
Size: 21243994 Hash: 73599EE50449346E29135F2C89CD1B81 Accuracy: -m0
Conclusion: CDDA 99%
Signature: CA3CB1DCAEC48DF61B39F9D02E0B75505330C74B
FILE: 10 - Go Go a Go Go.flac
Size: 23058859 Hash: B36D7EEB72688E22591A251468282333 Accuracy: -m0
Conclusion: CDDA 100%
Signature: 23601F7967F7E636201385462B4906B149E9A728
FILE: 09 - House of the Rising Sun.flac
Size: 20429819 Hash: 677326060D28FE795DBED21A09AE26DE Accuracy: -m0
Conclusion: CDDA 100%
Signature: A05FEBD34647FB68665898B7F130016F126FF5F9
FILE: 08 - Barock.flac
Size: 20637088 Hash: 49E7185E2CF4DB44A6DE74E7D1D28569 Accuracy: -m0
Conclusion: CDDA 100%
Signature: 56279C5611C433E152E058A25D51E7AB020BFF45
FILE: 07 - Watermelon Man.flac
Size: 23270398 Hash: 56A681208777B6110F2B1EF77A5A0EB7 Accuracy: -m0
Conclusion: CDDA 100%
Signature: 86C7638C8A1D09177D308CEA4F8A57E26466CF9D
FILE: 06 - Boom Boom.flac
Size: 23290452 Hash: C7F56916116BB0213864A0A4C187648C Accuracy: -m0
Conclusion: CDDA 100%
Signature: 874A1A9FA227EE5798E35E440518B33416DAD8D5
FILE: 05 - My Girl.flac
Size: 15911027 Hash: 546EDF1A87ECFE417E6A363281A6DF58 Accuracy: -m0
Conclusion: CDDA 100%
Signature: A71A9D8342F192C076089DEBFB774EFC824F31BB
FILE: 04 - Snap Shot.flac
Size: 23105955 Hash: B666821834ABF638381D183FDDB4D573 Accuracy: -m0
Conclusion: CDDA 100%
Signature: 2A2298BDA996F1195EF3947A7CEFEE3901405D3F
FILE: 03 - Day Tripper.flac
Size: 21647431 Hash: 6F48E865F0BE116E5CE9496A5AFAD871 Accuracy: -m0
Conclusion: CDDA 100%
Signature: 265BDB67565341374D56237A87D78D10204F16B1
FILE: 02 - Mercy, Mercy, Mercy.flac
Size: 17159178 Hash: 3DBFE41486769FA5180762ADC9386DAA Accuracy: -m0
Conclusion: CDDA 100%
Signature: 92A9A6953DD9A9DE2D3D926B13A835C97D86BC71
FILE: 01 - Pata Pata.flac
Size: 25053747 Hash: 2ED387395BBCEEBA5D417D7D67B7171C Accuracy: -m0
Conclusion: CDDA 100%
Signature: 3CD94DFE9BF159C6C263926FC217D3B51F67D710

Состав

Norio Maeda - organ
Jiro Inagaki - tenor saxophone
Kiyoshi Sugimoto - guitar
Tetsuo Fushimi - trumpet
Takeshi Inomata - drums
Tatsuro Takimoto - bass
Osamu Nakajima - percussion
Детали торрента:
Название:Norio Maeda & Jiro Inagaki - This Is Jazz-Rock (1968) 2008, Nippon Columbia [FLAC|Lossless|tracks + .cue] <Jazz-Rock, Jazz Fusion>
Дата добавления:24 Ноя 2018 08:35:38
Размер:242 MB
Раздают:2
Качают:0
Форум:Jazz (Lossless)

All rights reserved © 2015-2019