TORRENTS45.XYZ

Скачать Последнее королевство / The Last Kingdom (2018) WEBRip (сезон 3, серии 1-10 из 10) LostFilm


Последнее королевство / The Last Kingdom (2018) WEBRip (сезон 3, серии 1-10 из 10)
Производство: Великобритания / Carnival Film & Television
Жанр: боевик, драма, история

Режиссер: Джон Ист, Эрик Лейжонборг
Актеры: Элиза Баттерворт, Теа Софи Лох Несс, Клари Толнаи, Тиго Гернандт, Мартин Ангребауэр, Джулия Браун, Элла Брукколери, Джонатан Пек, Ката Сарбо, Энтон Саундерс и др.

Описание:
Сюжет рассказывает о временах правления короля Уэссекса Альфреда Великого, сумевшего отвоевать английские земли у датских викингов — заморских захватчиков. Главным героем повествования выступает ещё в младенчестве похищенный данами Утред — потомок благородного саксонского рода. Воспитанный как викинг, в очень непростой момент жизненного выбора молодой воин должен будет решить для себя, чью сторону он примет в решающих сражениях за судьбу древней Британии.



Продолжительность: ~00:55:00 серия
Качество видео: WEBRip
Перевод: Многоголосый закадровый, профессиональный - LostFilm
Субтитры: русские, английские

Видео: XviD, 720x400 (16:9), ~1495 kbps
Аудио 1: MP3, 2 ch, 128 kbps — русский, многоголосый закадровый
Аудио 2: MP3, 2 ch, 128 kbps — английский

MediaInfo


Общее
Полное имя : D:\Последнее королевство (сезон 3) The Last Kingdom (2018) WEBRip - LostFilm\The.Last.Kingdom.S03E01.WEBRip.Rus.Eng.DV.LostFilm.avi
Формат : AVI
Формат/Информация : Audio Video Interleave
Размер файла : 694 Мбайт
Продолжительность : 54 м. 58 с.
Общий поток : 1766 Кбит/сек
Название фильма : The.Last.Kingdom.S03E01.WEBRip.Rus.Eng.DV.LostFilm / torrents45.xyz />Программа кодирования : VirtualDubModRus 1.5.10.2 (build 2542/release)
Библиотека кодирования : VirtualDubMod build 2542/release

Видео
Идентификатор : 0
Формат : MPEG-4 Visual
Профиль формата : Advanced Simple@L5
Настройки формата : BVOP2
Параметр BVOP формата : 2
Параметр QPel формата : Нет
Параметр GMC формата : Без точки перехода
Параметр матрицы формата : Default (H.263)
Идентификатор кодека : XVID
Идентификатор кодека/Подсказка : XviD
Продолжительность : 54 м. 58 с.
Битрейт : 1495 Кбит/сек
Ширина : 720 пикселей
Высота : 400 пикселей
Соотношение сторон : 16:9
Частота кадров : 25,000 кадров/сек
Цветовое пространство : YUV
Субдискретизация насыщенности : 4:2:0
Битовая глубина : 8 бит
Тип развёртки : Прогрессивная
Метод сжатия : С потерями
Бит/(Пиксели*Кадры) : 0.208
Размер потока : 588 Мбайт (85%)
Заголовок : Rip by DriverV / torrents45.xyz />Библиотека кодирования : XviD 67

Аудио #1
Идентификатор : 1
Формат : MPEG Audio
Версия формата : Version 1
Профиль формата : Layer 3
Настройки формата : Joint stereo / MS Stereo
Идентификатор кодека : 55
Идентификатор кодека/Подсказка : MP3
Продолжительность : 54 м. 58 с.
Вид битрейта : Постоянный
Битрейт : 128 Кбит/сек
Каналы : 2 канала
Частота : 48,0 КГц
Метод сжатия : С потерями
Размер потока : 50,3 Мбайт (7%)
Выравнивание : Соединение по промежуткам
Продолжительность промежутка : 40 мс. (1,00 видеокадр)
Время предзагрузки промежутка : 504 мс.

Аудио #2
Идентификатор : 2
Формат : MPEG Audio
Версия формата : Version 1
Профиль формата : Layer 3
Настройки формата : Joint stereo / MS Stereo
Идентификатор кодека : 55
Идентификатор кодека/Подсказка : MP3
Продолжительность : 54 м. 58 с.
Вид битрейта : Постоянный
Битрейт : 128 Кбит/сек
Каналы : 2 канала
Частота : 48,0 КГц
Метод сжатия : С потерями
Размер потока : 50,3 Мбайт (7%)
Выравнивание : Соединение по промежуткам
Продолжительность промежутка : 40 мс. (1,00 видеокадр)
Время предзагрузки промежутка : 504 мс.

Дополнительная информация

"Чистый" кадр. Вступительная заставка и логотип LostFilm отсутствуют.
Скриншоты:



Все одноименные релизы в Клубе

Смотреть Online

Детали торрента:
Название:Последнее королевство / The Last Kingdom (2018) WEBRip (сезон 3, серии 1-10 из 10) LostFilm
Дата добавления:13 Янв 2019 15:57:14
Размер:6,58 GB
Раздают:36
Качают:9
Форум:Зарубежные сериалы

All rights reserved © 2015-2019