TORRENTS45.XYZ

Скачать George Otsuka Quintet - Go On (1972) 2013, Think! Records [FLAC|Lossless|tracks + .cue] <Post-Bop>


George Otsuka Quintet - Go On (1972) 2013, Think! Records
Жанр: Post-Bop
Издание: Think! Records - THCD-250
Продолжительность: 00:36:30

Кодек: FLAC (tracks+.cue)
Битрейт: Lossless
Источник (релизер): wikieup
Страна-производитель диска: Japan
Наличие сканов в содержимом раздачи: нет

Треклист:

01. Go On [8:56]
02. Castaly [8:46]
03. Space Drive [6:12]
04. Here's That Rainy Day [7:03]
05. Isotope [5:34]

Отчёт EAC:


Exact Audio Copy V1.0 beta 3 from 29. August 2011

EAC extraction logfile from 24. April 2014, 11:16

George Otsuka Quintet / Go On [2013 Reissue]

Used drive : TSSTcorpDVD-ROM TS-U333B Adapter: 0 ID: 1

Read mode : Secure
Utilize accurate stream : Yes
Defeat audio cache : Yes
Make use of C2 pointers : No

Read offset correction : 6
Overread into Lead-In and Lead-Out : No
Fill up missing offset samples with silence : Yes
Delete leading and trailing silent blocks : No
Null samples used in CRC calculations : Yes
Used interface : Native Win32 interface for Win NT & 2000
Gap handling : Appended to previous track

Used output format : User Defined Encoder
Selected bitrate : 1024 kBit/s
Quality : High
Add ID3 tag : No
Command line compressor : C:\Program Files\Exact Audio Copy\Flac\flac.exe
Additional command line options : -8 -V -T "ARTIST=%artist%" -T "TITLE=%title%" -T "ALBUM=%albumtitle%" -T "DATE=%year%" -T "TRACKNUMBER=%tracknr%" -T "GENRE=%genre%" -T "PERFORMER=%albuminterpret%" -T "COMPOSER=%composer%" %haslyrics%--tag-from-file=LYRICS="%lyricsfile%"%haslyrics% -T "ALBUMARTIST=%albumartist%" -T "DISCNUMBER=%cdnumber%" -T "TOTALDISCS=%totalcds%" -T "TOTALTRACKS=%numtracks%" -T "COMMENT=%comment%" %source% -o %dest%

TOC of the extracted CD

Track | Start | Length | Start sector | End sector
---------------------------------------------------------
1 | 0:00.00 | 8:55.64 | 0 | 40188
2 | 8:55.64 | 8:45.50 | 40189 | 79613
3 | 17:41.39 | 6:12.08 | 79614 | 107521
4 | 23:53.47 | 7:03.17 | 107522 | 139263
5 | 30:56.64 | 5:33.40 | 139264 | 164278

Track 1

Filename C:\EAC Rips\01 - Go On.wav

Pre-gap length 0:00:02.00

Peak level 98.8 %
Extraction speed 1.2 X
Track quality 99.9 %
Test CRC 27D2AB6C
Copy CRC 27D2AB6C
Accurately ripped (confidence 1) [A4D48389] (AR v2)
Copy OK

Track 2

Filename C:\EAC Rips\02 - Castaly.wav

Pre-gap length 0:00:03.64

Peak level 98.8 %
Extraction speed 1.5 X
Track quality 100.0 %
Test CRC 2BC95E50
Copy CRC 2BC95E50
Accurately ripped (confidence 1) [3CC9A847] (AR v2)
Copy OK

Track 3

Filename C:\EAC Rips\03 - Space Drive.wav

Pre-gap length 0:00:03.34

Peak level 98.8 %
Extraction speed 1.7 X
Track quality 100.0 %
Test CRC 5A4F127D
Copy CRC 5A4F127D
Accurately ripped (confidence 1) [2717AD0A] (AR v2)
Copy OK

Track 4

Filename C:\EAC Rips\04 - Here's That Rainy Day.wav

Pre-gap length 0:00:03.40

Peak level 98.8 %
Extraction speed 1.8 X
Track quality 100.0 %
Test CRC 35734715
Copy CRC 35734715
Accurately ripped (confidence 1) [6287CE81] (AR v2)
Copy OK

Track 5

Filename C:\EAC Rips\05 - Isotope.wav

Pre-gap length 0:00:02.89

Peak level 98.8 %
Extraction speed 1.9 X
Track quality 100.0 %
Test CRC DB17472B
Copy CRC DB17472B
Accurately ripped (confidence 1) [88A42252] (AR v2)
Copy OK

All tracks accurately ripped

No errors occurred

End of status report

==== Log checksum 8FEA1B1E8398A5FB16BD5FB72B20D283853BA838AD2688ADBADFA68C6DA58551 ====

Cue Sheet (.cue):


REM GENRE Jazz
REM DATE 1972
REM DISCID 3E088E05
REM COMMENT "ExactAudioCopy v1.0b3"
PERFORMER "George Otsuka"
TITLE "Go On"
FILE "01 - Go On.wav" WAVE
TRACK 01 AUDIO
TITLE "Go On"
PERFORMER "George Otsuka"
INDEX 01 00:00:00
TRACK 02 AUDIO
TITLE "Castaly"
PERFORMER "George Otsuka"
INDEX 00 08:52:16
FILE "02 - Castaly.wav" WAVE
INDEX 01 00:00:00
TRACK 03 AUDIO
TITLE "Space Drive"
PERFORMER "George Otsuka"
INDEX 00 08:42:24
FILE "03 - Space Drive.wav" WAVE
INDEX 01 00:00:00
TRACK 04 AUDIO
TITLE "Here's That Rainy Day"
PERFORMER "George Otsuka"
INDEX 00 06:08:53
FILE "04 - Here's That Rainy Day.wav" WAVE
INDEX 01 00:00:00
TRACK 05 AUDIO
TITLE "Isotope"
PERFORMER "George Otsuka"
INDEX 00 07:00:25
FILE "05 - Isotope.wav" WAVE
INDEX 01 00:00:00

Отчёт auCDtect Task manager:


-----------------------

DON'T MODIFY THIS FILE

-----------------------

PERFORMER: auCDtect Task Manager, ver. 1.6.0 RC1 build 1.6.0.1
Copyright (c) 2008-2010 y-soft. All rights reserved
http://y-soft.org

ANALYZER: auCDtect: CD records authenticity detector, version 0.8.2
Copyright (c) 2004 Oleg Berngardt. All rights reserved.
Copyright (c) 2004 Alexander Djourik. All rights reserved.

FILE: 05 - Isotope.flac
Size: 41505140 Hash: 51E4BEDFB58E4080B9AD303BEB483D2F Accuracy: -m0
Conclusion: CDDA 100%
Signature: EAC1FE5EC417C4B9A4FEC887DDF25625A934D59B
FILE: 04 - Here's That Rainy Day.flac
Size: 40446689 Hash: D88010390F840DED4D7616DB6D2DDD61 Accuracy: -m0
Conclusion: CDDA 100%
Signature: BA204411E9CAF8F66FEBBA12E736677A02EDFEDB
FILE: 03 - Space Drive.flac
Size: 46069159 Hash: 87195E36F9B48BB3B263590DB7BE232D Accuracy: -m0
Conclusion: CDDA 100%
Signature: EBA7E54CE07597128B6B46F7858ED7EFB0749C0C
FILE: 02 - Castaly.flac
Size: 56127032 Hash: E532A1FBA80E8932FED1FB1B8433958D Accuracy: -m0
Conclusion: CDDA 100%
Signature: 57A4A4DBF7271DA26E910FDF707C92DAE8BF48CD
FILE: 01 - Go On.flac
Size: 61502588 Hash: D4EC1D6AC9A7C7DB5BD35B9ABCA50A36 Accuracy: -m0
Conclusion: CDDA 100%
Signature: 25E86DD25B606925C3AB4051774F4E9812E974BA

Состав

George Otsuka - drums
Shunzo Ohno - trumpet, flugelhorn
Mabumi Yamaguchi - tenor saxophone, soprano saxophone
Toshiyuki Daitoku - piano, electric piano
Takashi Mizuhashi - bass

Recorded at Aoi Studio, Tokyo on November 28-29, 1972
Детали торрента:
Название:George Otsuka Quintet - Go On (1972) 2013, Think! Records [FLAC|Lossless|tracks + .cue] <Post-Bop>
Дата добавления:23 Ноя 2018 11:43:36
Размер:234 MB
Раздают:1
Качают:0
Форум:Jazz (Lossless)

All rights reserved © 2015-2019