TORRENTS45.XYZ

Скачать Kazumi Watanabe First - Infinite (1971) 2011, Think! Records [FLAC|Lossless|tracks + .cue] <Jazz Fusion>


Kazumi Watanabe First - Infinite (1971) 2011, Think! Records
Жанр: Jazz Fusion
Издание: Think! Records - DTHK-009
Продолжительность: 00:32:17

Кодек: FLAC (tracks+.cue)
Битрейт: Lossless
Источник (релизер): wikieup
Страна-производитель диска: Japan
Наличие сканов в содержимом раздачи: да

Треклист:

01. Infinite [10:59]
02. Cortly [4:34]
03. Isotope [7:03]
04. Blue Bossa [5:49]
05. Here's That Rainy Day [3:52]

Отчёт EAC:


Exact Audio Copy V1.0 beta 3 from 29. August 2011

EAC extraction logfile from 26. August 2013, 10:17

Kazumi Watanabe / Infinite [2011 Reissue]

Used drive : TSSTcorpDVD-ROM TS-U333B Adapter: 0 ID: 1

Read mode : Secure
Utilize accurate stream : Yes
Defeat audio cache : Yes
Make use of C2 pointers : No

Read offset correction : 6
Overread into Lead-In and Lead-Out : No
Fill up missing offset samples with silence : Yes
Delete leading and trailing silent blocks : No
Null samples used in CRC calculations : Yes
Used interface : Native Win32 interface for Win NT & 2000
Gap handling : Appended to previous track

Used output format : User Defined Encoder
Selected bitrate : 1024 kBit/s
Quality : High
Add ID3 tag : No
Command line compressor : C:\Program Files\Exact Audio Copy\Flac\flac.exe
Additional command line options : -8 -V -T "ARTIST=%artist%" -T "TITLE=%title%" -T "ALBUM=%albumtitle%" -T "DATE=%year%" -T "TRACKNUMBER=%tracknr%" -T "GENRE=%genre%" -T "PERFORMER=%albuminterpret%" -T "COMPOSER=%composer%" %haslyrics%--tag-from-file=LYRICS="%lyricsfile%"%haslyrics% -T "ALBUMARTIST=%albumartist%" -T "DISCNUMBER=%cdnumber%" -T "TOTALDISCS=%totalcds%" -T "TOTALTRACKS=%numtracks%" -T "COMMENT=%comment%" %source% -o %dest%

TOC of the extracted CD

Track | Start | Length | Start sector | End sector
---------------------------------------------------------
1 | 0:00.00 | 10:59.00 | 0 | 49424
2 | 10:59.00 | 4:33.38 | 49425 | 69937
3 | 15:32.38 | 7:03.33 | 69938 | 101695
4 | 22:35.71 | 5:48.52 | 101696 | 127847
5 | 28:24.48 | 3:52.08 | 127848 | 145255

Track 1

Filename C:\EAC Rips\01 - Infinite.wav

Pre-gap length 0:00:02.00

Peak level 97.7 %
Extraction speed 2.8 X
Track quality 99.9 %
Test CRC C3240F80
Copy CRC C3240F80
Accurately ripped (confidence 2) [3ED85D17] (AR v2)
Copy OK

Track 2

Filename C:\EAC Rips\02 - Cortly.wav

Pre-gap length 0:00:02.65

Peak level 97.7 %
Extraction speed 3.3 X
Track quality 100.0 %
Test CRC D57FC42F
Copy CRC D57FC42F
Accurately ripped (confidence 2) [6DECA4D4] (AR v2)
Copy OK

Track 3

Filename C:\EAC Rips\03 - Isotope.wav

Pre-gap length 0:00:03.46

Peak level 97.7 %
Extraction speed 3.8 X
Track quality 100.0 %
Test CRC 6183860F
Copy CRC 6183860F
Accurately ripped (confidence 2) [ABC5E5B1] (AR v2)
Copy OK

Track 4

Filename C:\EAC Rips\04 - Blue Bossa.wav

Pre-gap length 0:00:02.41

Peak level 97.7 %
Extraction speed 4.0 X
Track quality 100.0 %
Test CRC 4E290F04
Copy CRC 4E290F04
Accurately ripped (confidence 2) [693FF0C8] (AR v2)
Copy OK

Track 5

Filename C:\EAC Rips\05 - Here's That Rainy Day.wav

Pre-gap length 0:00:03.52

Peak level 94.9 %
Extraction speed 3.3 X
Track quality 99.9 %
Test CRC 28642DC9
Copy CRC 28642DC9
Accurately ripped (confidence 2) [D12EE1AC] (AR v2)
Copy OK

All tracks accurately ripped

No errors occurred

End of status report

==== Log checksum 4DB744913B6DD16A249CDE77C09C60CC591881F201EA36C4AF72076FC9032854 ====

Cue Sheet (.cue):


REM GENRE Jazz
REM DATE 1971
REM DISCID 3D079005
REM COMMENT "ExactAudioCopy v1.0b3"
PERFORMER "Kazumi Watanabe"
TITLE "Infinite"
FILE "01 - Infinite.wav" WAVE
TRACK 01 AUDIO
TITLE "Infinite"
PERFORMER "Kazumi Watanabe"
INDEX 01 00:00:00
TRACK 02 AUDIO
TITLE "Cortly"
PERFORMER "Kazumi Watanabe"
INDEX 00 10:56:26
FILE "02 - Cortly.wav" WAVE
INDEX 01 00:00:00
TRACK 03 AUDIO
TITLE "Isotope"
PERFORMER "Kazumi Watanabe"
INDEX 00 04:30:03
FILE "03 - Isotope.wav" WAVE
INDEX 01 00:00:00
TRACK 04 AUDIO
TITLE "Blue Bossa"
PERFORMER "Kazumi Watanabe"
INDEX 00 07:01:02
FILE "04 - Blue Bossa.wav" WAVE
INDEX 01 00:00:00
TRACK 05 AUDIO
TITLE "Here's That Rainy Day"
PERFORMER "Kazumi Watanabe"
INDEX 00 05:45:13
FILE "05 - Here's That Rainy Day.wav" WAVE
INDEX 01 00:00:00

Отчёт auCDtect Task manager:


-----------------------

DON'T MODIFY THIS FILE

-----------------------

PERFORMER: auCDtect Task Manager, ver. 1.6.0 RC1 build 1.6.0.1
Copyright (c) 2008-2010 y-soft. All rights reserved
http://y-soft.org

ANALYZER: auCDtect: CD records authenticity detector, version 0.8.2
Copyright (c) 2004 Oleg Berngardt. All rights reserved.
Copyright (c) 2004 Alexander Djourik. All rights reserved.

FILE: 05 - Here's That Rainy Day.flac
Size: 20875749 Hash: A754EF57143A052E80910365CBE7831C Accuracy: -m0
Conclusion: CDDA 100%
Signature: FE52D6822BEF78B0AE67830979A77313BCB755D5
FILE: 04 - Blue Bossa.flac
Size: 41091043 Hash: F275A06A01E03075C1CD9ADFD1AB1EAF Accuracy: -m0
Conclusion: CDDA 100%
Signature: C7F711092744D54F7A9C6765622BA250ABC24B4C
FILE: 03 - Isotope.flac
Size: 50792719 Hash: B167CDFDB28F9D3B17B2F3A5B04A3D6C Accuracy: -m0
Conclusion: CDDA 100%
Signature: 6E6BC93E22ECBD91BE470860D59D4E4E9C36D9CD
FILE: 02 - Cortly.flac
Size: 31823207 Hash: 7B4135D80177219A4B38E20E594B70C0 Accuracy: -m0
Conclusion: CDDA 100%
Signature: C3F35DBAFE533AFF988FDFFC6E24519C8EFA94F6
FILE: 01 - Infinite.flac
Size: 71687032 Hash: 03E31C831D149E99F9F1142CA4DA958E Accuracy: -m0
Conclusion: CDDA 100%
Signature: DD0BE3A7500B4A4D5613E3C31F63D315588840C1

Состав

Kazumi Watanabe - electric guitar
Takao Uematsu - tenor saxophone
Hideo Ichikawa - electric piano
Yoshio Suzuki - bass
Motohiko Hino - drums

Recorded at Teichiku Studio, Tokyo on May 19, 1971
Детали торрента:
Название:Kazumi Watanabe First - Infinite (1971) 2011, Think! Records [FLAC|Lossless|tracks + .cue] <Jazz Fusion>
Дата добавления:20 Ноя 2018 14:29:38
Размер:207 MB
Раздают:4
Качают:0
Форум:Jazz (Lossless)

All rights reserved © 2015-2019