TORRENTS45.XYZ

Скачать Shintaro Nakamura Quintet - Evolution (1984) 2007, Solid Records [FLAC|Lossless|tracks + .cue] <Post-Bop>


Shintaro Nakamura Quintet - Evolution (1984) 2007, Solid Records
Жанр: Post-Bop
Издание: Solid Records - CDSOL-1159
Продолжительность: 00:42:41

Кодек: FLAC (tracks+.cue)
Битрейт: Lossless
Источник (релизер): wikieup
Страна-производитель диска: Japan
Наличие сканов в содержимом раздачи: нет

Треклист:

01. Future on You [6:32]
02. Don't Forget Me [6:07]
03. Sweet and Sour Sound [8:16]
04. Evolution [10:52]
05. A Blind Man [10:54]

Отчёт EAC:


Exact Audio Copy V1.0 beta 3 from 29. August 2011

EAC extraction logfile from 26. June 2014, 17:18

Shintaro Nakamura Quintet / Evolution [2007 Reissue]

Used drive : TSSTcorpDVD-ROM TS-U333B Adapter: 0 ID: 1

Read mode : Secure
Utilize accurate stream : Yes
Defeat audio cache : Yes
Make use of C2 pointers : No

Read offset correction : 6
Overread into Lead-In and Lead-Out : No
Fill up missing offset samples with silence : Yes
Delete leading and trailing silent blocks : No
Null samples used in CRC calculations : Yes
Used interface : Native Win32 interface for Win NT & 2000
Gap handling : Appended to previous track

Used output format : User Defined Encoder
Selected bitrate : 1024 kBit/s
Quality : High
Add ID3 tag : No
Command line compressor : C:\Program Files\Exact Audio Copy\Flac\flac.exe
Additional command line options : -8 -V -T "ARTIST=%artist%" -T "TITLE=%title%" -T "ALBUM=%albumtitle%" -T "DATE=%year%" -T "TRACKNUMBER=%tracknr%" -T "GENRE=%genre%" -T "PERFORMER=%albuminterpret%" -T "COMPOSER=%composer%" %haslyrics%--tag-from-file=LYRICS="%lyricsfile%"%haslyrics% -T "ALBUMARTIST=%albumartist%" -T "DISCNUMBER=%cdnumber%" -T "TOTALDISCS=%totalcds%" -T "TOTALTRACKS=%numtracks%" -T "COMMENT=%comment%" %source% -o %dest%

TOC of the extracted CD

Track | Start | Length | Start sector | End sector
---------------------------------------------------------
1 | 0:00.00 | 6:31.38 | 0 | 29362
2 | 6:31.38 | 6:07.36 | 29363 | 56923
3 | 12:38.74 | 8:16.21 | 56924 | 94144
4 | 20:55.20 | 10:51.66 | 94145 | 143035
5 | 31:47.11 | 10:53.41 | 143036 | 192051

Track 1

Filename C:\EAC Rips\01 - Future On You.wav

Pre-gap length 0:00:02.00

Peak level 100.0 %
Extraction speed 2.8 X
Track quality 100.0 %
Test CRC 1670A566
Copy CRC 1670A566
Track not present in AccurateRip database
Copy OK

Track 2

Filename C:\EAC Rips\02 - Don't Forget Me.wav

Pre-gap length 0:00:02.97

Peak level 100.0 %
Extraction speed 2.8 X
Track quality 99.9 %
Test CRC 5DF2597E
Copy CRC 5DF2597E
Track not present in AccurateRip database
Copy OK

Track 3

Filename C:\EAC Rips\03 - Sweet And Sour Sound.wav

Pre-gap length 0:00:02.30

Peak level 100.0 %
Extraction speed 3.7 X
Track quality 100.0 %
Test CRC ED67240E
Copy CRC ED67240E
Track not present in AccurateRip database
Copy OK

Track 4

Filename C:\EAC Rips\04 - Evolution.wav

Pre-gap length 0:00:02.76

Peak level 100.0 %
Extraction speed 4.2 X
Track quality 100.0 %
Test CRC 146F8686
Copy CRC 146F8686
Track not present in AccurateRip database
Copy OK

Track 5

Filename C:\EAC Rips\05 - A Blind Man.wav

Pre-gap length 0:00:03.85

Peak level 100.0 %
Extraction speed 4.7 X
Track quality 100.0 %
Test CRC 210D244B
Copy CRC 210D244B
Track not present in AccurateRip database
Copy OK

None of the tracks are present in the AccurateRip database

No errors occurred

End of status report

==== Log checksum B1F9A56D2051489372C736BBE37659FE770A129A0BA82E60CEBE4AB52F255449 ====

Cue Sheet (.cue):


REM GENRE Jazz
REM DATE 1984
REM DISCID 400A0005
REM COMMENT "ExactAudioCopy v1.0b3"
PERFORMER "Shintaro Nakamura Quintet"
TITLE "Evolution"
FILE "01 - Future on You.wav" WAVE
TRACK 01 AUDIO
TITLE "Future on You"
PERFORMER "Shintaro Nakamura Quintet"
INDEX 01 00:00:00
TRACK 02 AUDIO
TITLE "Don't Forget Me"
PERFORMER "Shintaro Nakamura Quintet"
INDEX 00 06:28:40
FILE "02 - Don't Forget Me.wav" WAVE
INDEX 01 00:00:00
TRACK 03 AUDIO
TITLE "Sweet and Sour Sound"
PERFORMER "Shintaro Nakamura Quintet"
INDEX 00 06:05:13
FILE "03 - Sweet and Sour Sound.wav" WAVE
INDEX 01 00:00:00
TRACK 04 AUDIO
TITLE "Evolution"
PERFORMER "Shintaro Nakamura Quintet"
INDEX 00 08:13:39
FILE "04 - Evolution.wav" WAVE
INDEX 01 00:00:00
TRACK 05 AUDIO
TITLE "A Blind Man"
PERFORMER "Shintaro Nakamura Quintet"
INDEX 00 10:48:02
FILE "05 - A Blind Man.wav" WAVE
INDEX 01 00:00:00

Отчёт auCDtect Task manager:


-----------------------

DON'T MODIFY THIS FILE

-----------------------

PERFORMER: auCDtect Task Manager, ver. 1.6.0 RC1 build 1.6.0.1
Copyright (c) 2008-2010 y-soft. All rights reserved
http://y-soft.org

ANALYZER: auCDtect: CD records authenticity detector, version 0.8.2
Copyright (c) 2004 Oleg Berngardt. All rights reserved.
Copyright (c) 2004 Alexander Djourik. All rights reserved.

FILE: 05 - A Blind Man.flac
Size: 65276820 Hash: EA43989A18261E0A4E5685E1CF9E9972 Accuracy: -m0
Conclusion: CDDA 100%
Signature: EAF63D9EA09C7112F4796E45A09598323909A683
FILE: 04 - Evolution.flac
Size: 61835048 Hash: D5C14E6108243D9489626F08F625EB4A Accuracy: -m0
Conclusion: CDDA 100%
Signature: EA9FE5F2BE344127600ABF1DA5C9702F82A2AEE2
FILE: 03 - Sweet and Sour Sound.flac
Size: 51943476 Hash: A2DCFAC823FC811A43C1127085E94508 Accuracy: -m0
Conclusion: CDDA 100%
Signature: 970F53975FD75F9384EB633E786214C1A50D3BE8
FILE: 02 - Don't Forget Me.flac
Size: 33996685 Hash: 66D93F1481A12CA4C5C67907404A9656 Accuracy: -m0
Conclusion: CDDA 100%
Signature: 0A18AE3E06638641D813907CED9527769DCEAB08
FILE: 01 - Future on You.flac
Size: 41002246 Hash: AC9ED34B35B3538910699E753AE4B1E9 Accuracy: -m0
Conclusion: CDDA 100%
Signature: 9493BB03D7918FDC1BA1BAEF45E15B87328C57E6

Состав

Shintaro Nakamura - bass
Shunzo Ohno - trumpet
Robert Kenmotsu - tenor saxophone
Jeff Jenkins - piano
Fukushi Tainaka - drums

Recorded at Hi-Five Studio, New York on January 10-13, 1984
Детали торрента:
Название:Shintaro Nakamura Quintet - Evolution (1984) 2007, Solid Records [FLAC|Lossless|tracks + .cue] <Post-Bop>
Дата добавления:20 Ноя 2018 10:26:00
Размер:243 MB
Раздают:
Качают:0
Форум:Jazz (Lossless)

All rights reserved © 2015-2019