TORRENTS45.XYZ

Скачать Hiroshi Matsumoto & Hideo Ichikawa Quartet - Megalopolis (1969) 2006, Think! Records [FLAC|Lossless|tracks + .cue] <Hard Bop, Post-Bop>


Hiroshi Matsumoto & Hideo Ichikawa Quartet - Megalopolis (1969) 2006, Think! Records
Жанр: Hard Bop, Post-Bop
Издание: Think! Records - THCD-027
Продолжительность: 00:39:01

Кодек: FLAC (tracks+.cue)
Битрейт: Lossless
Источник (релизер): wikieup
Страна-производитель диска: Japan
Наличие сканов в содержимом раздачи: нет

Треклист:

01. A Sketch of City Life [15:31]
02. Nostalgia [4:37]
03. Megalopolis [5:56]
04. Serenade to a Dimly Lit Street [5:10]
05. Irritation [7:47]

Отчёт EAC:


Exact Audio Copy V1.0 beta 3 from 29. August 2011

EAC extraction logfile from 3. June 2014, 11:17

Hiroshi Matsumoto & Hideo Ichikawa Quartet / Megalopolis [2006 Reissue]

Used drive : TSSTcorpDVD-ROM TS-U333B Adapter: 0 ID: 1

Read mode : Secure
Utilize accurate stream : Yes
Defeat audio cache : Yes
Make use of C2 pointers : No

Read offset correction : 6
Overread into Lead-In and Lead-Out : No
Fill up missing offset samples with silence : Yes
Delete leading and trailing silent blocks : No
Null samples used in CRC calculations : Yes
Used interface : Native Win32 interface for Win NT & 2000
Gap handling : Appended to previous track

Used output format : User Defined Encoder
Selected bitrate : 1024 kBit/s
Quality : High
Add ID3 tag : No
Command line compressor : C:\Program Files\Exact Audio Copy\Flac\flac.exe
Additional command line options : -8 -V -T "ARTIST=%artist%" -T "TITLE=%title%" -T "ALBUM=%albumtitle%" -T "DATE=%year%" -T "TRACKNUMBER=%tracknr%" -T "GENRE=%genre%" -T "PERFORMER=%albuminterpret%" -T "COMPOSER=%composer%" %haslyrics%--tag-from-file=LYRICS="%lyricsfile%"%haslyrics% -T "ALBUMARTIST=%albumartist%" -T "DISCNUMBER=%cdnumber%" -T "TOTALDISCS=%totalcds%" -T "TOTALTRACKS=%numtracks%" -T "COMMENT=%comment%" %source% -o %dest%

TOC of the extracted CD

Track | Start | Length | Start sector | End sector
---------------------------------------------------------
1 | 0:00.00 | 15:31.30 | 0 | 69854
2 | 15:31.30 | 4:37.25 | 69855 | 90654
3 | 20:08.55 | 5:55.40 | 90655 | 117319
4 | 26:04.20 | 5:09.58 | 117320 | 140552
5 | 31:14.03 | 7:46.47 | 140553 | 175549

Track 1

Filename C:\EAC Rips\01 - A Sketch Of City Life.wav

Pre-gap length 0:00:02.00

Peak level 99.8 %
Extraction speed 3.2 X
Track quality 100.0 %
Test CRC 71EC57EC
Copy CRC 71EC57EC
Track not present in AccurateRip database
Copy OK

Track 2

Filename C:\EAC Rips\02 - Nostalgia.wav

Pre-gap length 0:00:03.66

Peak level 96.4 %
Extraction speed 3.5 X
Track quality 100.0 %
Test CRC 21E65D57
Copy CRC 21E65D57
Track not present in AccurateRip database
Copy OK

Track 3

Filename C:\EAC Rips\03 - Megalopolis.wav

Pre-gap length 0:00:03.66

Peak level 99.7 %
Extraction speed 3.4 X
Track quality 99.9 %
Test CRC C1409C9C
Copy CRC C1409C9C
Track not present in AccurateRip database
Copy OK

Track 4

Filename C:\EAC Rips\04 - Serenade To A Dimly Lit Street.wav

Pre-gap length 0:00:03.66

Peak level 83.2 %
Extraction speed 3.5 X
Track quality 99.9 %
Test CRC 4B35527E
Copy CRC 4B35527E
Track not present in AccurateRip database
Copy OK

Track 5

Filename C:\EAC Rips\05 - Irritation.wav

Pre-gap length 0:00:03.68

Peak level 99.8 %
Extraction speed 4.5 X
Track quality 100.0 %
Test CRC 94D7B739
Copy CRC 94D7B739
Track not present in AccurateRip database
Copy OK

None of the tracks are present in the AccurateRip database

No errors occurred

End of status report

==== Log checksum C226C584DFA52B181566C627553DC81A307AA8A7C4E25DA28EC6A3751DA3859D ====

Cue Sheet (.cue):


REM GENRE Jazz
REM DATE 1969
REM DISCID 3D092405
REM COMMENT "ExactAudioCopy v1.0b3"
PERFORMER "Hiroshi Matsumoto & Hideo Ichikawa Quartet"
TITLE "Megalopolis"
FILE "01 - A Sketch of City Life.wav" WAVE
TRACK 01 AUDIO
TITLE "A Sketch of City Life"
PERFORMER "Hiroshi Matsumoto & Hideo Ichikawa Quartet"
INDEX 01 00:00:00
TRACK 02 AUDIO
TITLE "Nostalgia"
PERFORMER "Hiroshi Matsumoto & Hideo Ichikawa Quartet"
INDEX 00 15:27:55
FILE "02 - Nostalgia.wav" WAVE
INDEX 01 00:00:00
TRACK 03 AUDIO
TITLE "Megalopolis"
PERFORMER "Hiroshi Matsumoto & Hideo Ichikawa Quartet"
INDEX 00 04:33:50
FILE "03 - Megalopolis.wav" WAVE
INDEX 01 00:00:00
TRACK 04 AUDIO
TITLE "Serenade to a Dimly Lit Street"
PERFORMER "Hiroshi Matsumoto & Hideo Ichikawa Quartet"
INDEX 00 05:51:65
FILE "04 - Serenade to a Dimly Lit Street.wav" WAVE
INDEX 01 00:00:00
TRACK 05 AUDIO
TITLE "Irritation"
PERFORMER "Hiroshi Matsumoto & Hideo Ichikawa Quartet"
INDEX 00 05:06:07
FILE "05 - Irritation.wav" WAVE
INDEX 01 00:00:00

Отчёт auCDtect Task manager:


-----------------------

DON'T MODIFY THIS FILE

-----------------------

PERFORMER: auCDtect Task Manager, ver. 1.6.0 RC1 build 1.6.0.1
Copyright (c) 2008-2010 y-soft. All rights reserved
http://y-soft.org

ANALYZER: auCDtect: CD records authenticity detector, version 0.8.2
Copyright (c) 2004 Oleg Berngardt. All rights reserved.
Copyright (c) 2004 Alexander Djourik. All rights reserved.

FILE: 05 - Irritation.flac
Size: 59365522 Hash: DA8C03D5252C0BF22524FA14D5402868 Accuracy: -m0
Conclusion: CDDA 100%
Signature: 91A7DAF60F803C2C1437F608BBD50F21D6C0E706
FILE: 04 - Serenade to a Dimly Lit Street.flac
Size: 32831186 Hash: 71590133752C722B3F7A27A9BEA7238B Accuracy: -m0
Conclusion: CDDA 100%
Signature: ABD5BB733A164DFF2A41741D4C21513033AF5C7F
FILE: 03 - Megalopolis.flac
Size: 42769019 Hash: C5C060813AFF74E823883D7B2481FB19 Accuracy: -m0
Conclusion: CDDA 99%
Signature: 77C81D33F5663668F356830B5543B636FBC0A530
FILE: 02 - Nostalgia.flac
Size: 31502067 Hash: 852530D0166E084BC0BA6B3E155BB838 Accuracy: -m0
Conclusion: CDDA 100%
Signature: 8F7852CB01E515EF758E809D7F80012F90047B1A
FILE: 01 - A Sketch of City Life.flac
Size: 102969692 Hash: 6C6E739E418951791B2DAEB45488E9DF Accuracy: -m0
Conclusion: CDDA 100%
Signature: 9762C30A8954BC0AAC4BC44BCCD1158B1F684F99

Состав

Hiroshi Matsumoto - vibraphone
Hideo Ichikawa - piano
Kunimitsu Inaba - bass
Motohiko Hino - drums
Детали торрента:
Название:Hiroshi Matsumoto & Hideo Ichikawa Quartet - Megalopolis (1969) 2006, Think! Records [FLAC|Lossless|tracks + .cue] <Hard Bop, Post-Bop>
Дата добавления:19 Ноя 2018 14:03:09
Размер:257 MB
Раздают:
Качают:0
Форум:Jazz (Lossless)

All rights reserved © 2015-2019