TORRENTS45.XYZ

Скачать Kazuo Yashiro - Love Is Here To Stay (1968) 2014, Nippon Columbia [FLAC|Lossless|tracks + .cue] <Post-Bop, Piano Jazz>


Kazuo Yashiro - Love Is Here To Stay (1968) 2014, Nippon Columbia
Жанр: Hard Bop, Piano Jazz
Издание: Nippon Columbia - COCB-54090
Продолжительность: 00:40:18

Кодек: FLAC (tracks+.cue)
Битрейт: Lossless
Источник (релизер): wikieup
Страна-производитель диска: Japan
Наличие сканов в содержимом раздачи: нет

Треклист:

01. What Is This Thing Called Love [3:58]
02. Being a Good Magician [3:23]
03. How Insensitive [3:27]
04. Spring Is Here [3:54]
05. Ja-Da [4:04]
06. Summer Samba (So Nice) [3:45]
07. Love Is Here to Stay [3:47]
08. Emily [3:18]
09. Sunny [3:06]
10. Day Tripper [3:18]
11. Ja-Da (live) [4:17]

Отчёт EAC:


Exact Audio Copy V1.0 beta 3 from 29. August 2011

EAC extraction logfile from 2. May 2014, 13:05

Kazuo Yashiro Trio / Love Is Here To Stay [2014 Reissue]

Used drive : TSSTcorpDVD-ROM TS-U333B Adapter: 0 ID: 1

Read mode : Secure
Utilize accurate stream : Yes
Defeat audio cache : Yes
Make use of C2 pointers : No

Read offset correction : 6
Overread into Lead-In and Lead-Out : No
Fill up missing offset samples with silence : Yes
Delete leading and trailing silent blocks : No
Null samples used in CRC calculations : Yes
Used interface : Native Win32 interface for Win NT & 2000
Gap handling : Appended to previous track

Used output format : User Defined Encoder
Selected bitrate : 1024 kBit/s
Quality : High
Add ID3 tag : No
Command line compressor : C:\Program Files\Exact Audio Copy\Flac\flac.exe
Additional command line options : -8 -V -T "ARTIST=%artist%" -T "TITLE=%title%" -T "ALBUM=%albumtitle%" -T "DATE=%year%" -T "TRACKNUMBER=%tracknr%" -T "GENRE=%genre%" -T "PERFORMER=%albuminterpret%" -T "COMPOSER=%composer%" %haslyrics%--tag-from-file=LYRICS="%lyricsfile%"%haslyrics% -T "ALBUMARTIST=%albumartist%" -T "DISCNUMBER=%cdnumber%" -T "TOTALDISCS=%totalcds%" -T "TOTALTRACKS=%numtracks%" -T "COMMENT=%comment%" %source% -o %dest%

TOC of the extracted CD

Track | Start | Length | Start sector | End sector
---------------------------------------------------------
1 | 0:00.00 | 3:57.58 | 0 | 17832
2 | 3:57.58 | 3:23.24 | 17833 | 33081
3 | 7:21.07 | 3:27.20 | 33082 | 48626
4 | 10:48.27 | 3:54.30 | 48627 | 66206
5 | 14:42.57 | 4:04.01 | 66207 | 84507
6 | 18:46.58 | 3:44.60 | 84508 | 101367
7 | 22:31.43 | 3:47.14 | 101368 | 118406
8 | 26:18.57 | 3:17.69 | 118407 | 133250
9 | 29:36.51 | 3:05.47 | 133251 | 147172
10 | 32:42.23 | 3:18.21 | 147173 | 162043
11 | 36:00.44 | 4:17.11 | 162044 | 181329

Track 1

Filename C:\EAC Rips\01 - What Is This Thing Called Love.wav

Pre-gap length 0:00:02.00

Peak level 100.0 %
Extraction speed 2.6 X
Track quality 100.0 %
Test CRC 86EDBDD3
Copy CRC 86EDBDD3
Track not present in AccurateRip database
Copy OK

Track 2

Filename C:\EAC Rips\02 - Being A Good Magician.wav

Pre-gap length 0:00:03.48

Peak level 100.0 %
Extraction speed 2.8 X
Track quality 100.0 %
Test CRC 4A767121
Copy CRC 4A767121
Track not present in AccurateRip database
Copy OK

Track 3

Filename C:\EAC Rips\03 - How Insensitive.wav

Pre-gap length 0:00:03.50

Peak level 91.6 %
Extraction speed 3.0 X
Track quality 100.0 %
Test CRC D6523F7C
Copy CRC D6523F7C
Track not present in AccurateRip database
Copy OK

Track 4

Filename C:\EAC Rips\04 - Spring Is Here.wav

Pre-gap length 0:00:03.50

Peak level 72.7 %
Extraction speed 2.6 X
Track quality 99.9 %
Test CRC 28974D90
Copy CRC 28974D90
Track not present in AccurateRip database
Copy OK

Track 5

Filename C:\EAC Rips\05 - Jada.wav

Pre-gap length 0:00:03.52

Peak level 100.0 %
Extraction speed 2.8 X
Track quality 99.9 %
Test CRC D53294D2
Copy CRC D53294D2
Track not present in AccurateRip database
Copy OK

Track 6

Filename C:\EAC Rips\06 - Summer Samba.wav

Pre-gap length 0:00:03.48

Peak level 100.0 %
Extraction speed 3.5 X
Track quality 100.0 %
Test CRC 287090C2
Copy CRC 287090C2
Track not present in AccurateRip database
Copy OK

Track 7

Filename C:\EAC Rips\07 - Love Is Here To Stay.wav

Pre-gap length 0:00:03.49

Peak level 100.0 %
Extraction speed 3.7 X
Track quality 100.0 %
Test CRC 7BE62290
Copy CRC 7BE62290
Track not present in AccurateRip database
Copy OK

Track 8

Filename C:\EAC Rips\08 - Emily.wav

Pre-gap length 0:00:03.50

Peak level 78.8 %
Extraction speed 3.8 X
Track quality 100.0 %
Test CRC F2147644
Copy CRC F2147644
Track not present in AccurateRip database
Copy OK

Track 9

Filename C:\EAC Rips\09 - Sunny.wav

Pre-gap length 0:00:03.52

Peak level 92.6 %
Extraction speed 3.8 X
Track quality 100.0 %
Test CRC F0BF3F68
Copy CRC F0BF3F68
Track not present in AccurateRip database
Copy OK

Track 10

Filename C:\EAC Rips\10 - Day Tripper.wav

Pre-gap length 0:00:03.56

Peak level 100.0 %
Extraction speed 4.0 X
Track quality 100.0 %
Test CRC 52B5A93A
Copy CRC 52B5A93A
Track not present in AccurateRip database
Copy OK

Track 11

Filename C:\EAC Rips\11 - Jada [Live].wav

Pre-gap length 0:00:03.33

Peak level 100.0 %
Extraction speed 4.4 X
Track quality 100.0 %
Test CRC 31B7B248
Copy CRC 31B7B248
Track not present in AccurateRip database
Copy OK

None of the tracks are present in the AccurateRip database

No errors occurred

End of status report

==== Log checksum A3F6BCAAD2F67457494631EAF95F75F61E7E52C239D4C4C615DB1120F6B4EDE5 ====

Cue Sheet (.cue):


REM GENRE Jazz
REM DATE 1968
REM DISCID 9609710B
REM COMMENT "ExactAudioCopy v1.0b3"
PERFORMER "Kazuo Yashiro"
TITLE "Love Is Here to Stay"
FILE "01 - What Is This Thing Called Love.wav" WAVE
TRACK 01 AUDIO
TITLE "What Is This Thing Called Love"
PERFORMER "Kazuo Yashiro"
INDEX 01 00:00:00
TRACK 02 AUDIO
TITLE "Being a Good Magician"
PERFORMER "Kazuo Yashiro"
INDEX 00 03:54:22
FILE "02 - Being a Good Magician.wav" WAVE
INDEX 01 00:00:00
TRACK 03 AUDIO
TITLE "How Insensitive"
PERFORMER "Kazuo Yashiro"
INDEX 00 03:19:61
FILE "03 - How Insensitive.wav" WAVE
INDEX 01 00:00:00
TRACK 04 AUDIO
TITLE "Spring Is Here"
PERFORMER "Kazuo Yashiro"
INDEX 00 03:23:57
FILE "04 - Spring Is Here.wav" WAVE
INDEX 01 00:00:00
TRACK 05 AUDIO
TITLE "Ja-Da"
PERFORMER "Kazuo Yashiro"
INDEX 00 03:50:66
FILE "05 - Ja-Da.wav" WAVE
INDEX 01 00:00:00
TRACK 06 AUDIO
TITLE "Summer Samba (So Nice)"
PERFORMER "Kazuo Yashiro"
INDEX 00 04:00:40
FILE "06 - Summer Samba (So Nice).wav" WAVE
INDEX 01 00:00:00
TRACK 07 AUDIO
TITLE "Love Is Here to Stay"
PERFORMER "Kazuo Yashiro"
INDEX 00 03:41:23
FILE "07 - Love Is Here to Stay.wav" WAVE
INDEX 01 00:00:00
TRACK 08 AUDIO
TITLE "Emily"
PERFORMER "Kazuo Yashiro"
INDEX 00 03:43:51
FILE "08 - Emily.wav" WAVE
INDEX 01 00:00:00
TRACK 09 AUDIO
TITLE "Sunny"
PERFORMER "Kazuo Yashiro"
INDEX 00 03:14:30
FILE "09 - Sunny.wav" WAVE
INDEX 01 00:00:00
TRACK 10 AUDIO
TITLE "Day Tripper"
PERFORMER "Kazuo Yashiro"
INDEX 00 03:02:05
FILE "10 - Day Tripper.wav" WAVE
INDEX 01 00:00:00
TRACK 11 AUDIO
TITLE "Ja-Da (live)"
PERFORMER "Kazuo Yashiro"
INDEX 00 03:14:71
FILE "11 - Ja-Da (live).wav" WAVE
INDEX 01 00:00:00

Отчёт auCDtect Task manager:


-----------------------

DON'T MODIFY THIS FILE

-----------------------

PERFORMER: auCDtect Task Manager, ver. 1.6.0 RC1 build 1.6.0.1
Copyright (c) 2008-2010 y-soft. All rights reserved
http://y-soft.org

ANALYZER: auCDtect: CD records authenticity detector, version 0.8.2
Copyright (c) 2004 Oleg Berngardt. All rights reserved.
Copyright (c) 2004 Alexander Djourik. All rights reserved.

FILE: 11 - Ja-Da (live).flac
Size: 23362228 Hash: 0CA9142D7902FB2FCE9637FC8D78F91C Accuracy: -m0
Conclusion: CDDA 100%
Signature: 001613ADA3CBE9455D5F1F2EE802DA13F1D0235D
FILE: 10 - Day Tripper.flac
Size: 20779301 Hash: 39EF2333D3A363A945E6518AA802CAF4 Accuracy: -m0
Conclusion: CDDA 100%
Signature: 53DD714801DB7E520DAAB536036EA0205FF8085A
FILE: 09 - Sunny.flac
Size: 18631415 Hash: 91687923CC4B470B73B618BCC757CA52 Accuracy: -m0
Conclusion: CDDA 99%
Signature: E736EEFF94282120DC3F820898BCDF2215A85464
FILE: 08 - Emily.flac
Size: 17542926 Hash: 9EC69652469B0DEC2F021391E72498DB Accuracy: -m0
Conclusion: CDDA 100%
Signature: 79F656814A839B961DA1610C8AE7FCCB2B541804
FILE: 07 - Love Is Here to Stay.flac
Size: 20428829 Hash: 486231CA2E6FE624E316CC764213C024 Accuracy: -m0
Conclusion: CDDA 100%
Signature: 8565A5C67432B8B5E18FECF7C2223869EFA2EA27
FILE: 06 - Summer Samba (So Nice).flac
Size: 22343246 Hash: ADC6C8F3F8632A53B4848748446D4BD4 Accuracy: -m0
Conclusion: CDDA 100%
Signature: 63809D7D0EAF5565292C5375756EDEBD9F733A1E
FILE: 05 - Ja-Da.flac
Size: 22899220 Hash: 6C74D38AF5D092ED4F5DE6AE8438A0CF Accuracy: -m0
Conclusion: CDDA 100%
Signature: CF033BF4A66B3F536607B96DC39B5C3D3C3650C5
FILE: 04 - Spring Is Here.flac
Size: 19234945 Hash: 39D8FAFA9418AC810881DAC737D82DD3 Accuracy: -m0
Conclusion: CDDA 100%
Signature: 0470089D06611A1A3C80EF43CFD7478ED69B0361
FILE: 03 - How Insensitive.flac
Size: 18914083 Hash: A5DFF9B8DC705B45CD4E663E6AFD80F1 Accuracy: -m0
Conclusion: CDDA 100%
Signature: A91D135C58E05A6C71EA8921598A9B0665A270EB
FILE: 02 - Being a Good Magician.flac
Size: 21000144 Hash: C3B5C5163E6EF102F336E82A843E25BA Accuracy: -m0
Conclusion: CDDA 100%
Signature: 0A6D6BCD052DF869E516BF80C4020A7C574426A0
FILE: 01 - What Is This Thing Called Love.flac
Size: 22762805 Hash: 3AFA550D05133515F684A4780746C370 Accuracy: -m0
Conclusion: CDDA 100%
Signature: BF8731C6165B22F6C29E21F6B6B279295D988117

Состав

Kazuo Yashiro - piano
Masanaga Harada - bass
Jimmy Takeuchi, Takeshi Inomata (11) - drums
Hideo Miyata - cabasa (3,6)

Recording at Teichiku Kaikan Studios, Tokyo on January 23, 1968 (1-10) and at Shinjuku Kosei Nenkin Kaikan dai-horu, Tokyo on June 18, 1968 (11)
Детали торрента:
Название:Kazuo Yashiro - Love Is Here To Stay (1968) 2014, Nippon Columbia [FLAC|Lossless|tracks + .cue] <Post-Bop, Piano Jazz>
Дата добавления:19 Ноя 2018 12:12:52
Размер:217 MB
Раздают:
Качают:0
Форум:Jazz (Lossless)

All rights reserved © 2015-2019