TORRENTS45.XYZ

Скачать Мажор (2018) HDTVRip (сезон 3, серии 1-16 из 16)


Мажор (2018) HDTVRip (сезон 3, серии 1-16 из 16)
Производство: Россия / Продюсерский центр "Среда"
Жанр: драма, криминал

Режиссер: Игорь Твердохлебов
Актеры: Павел Прилучный, Карина Разумовская, Любовь Аксенова, Дмитрий Шевченко, Александр Обласов, Дмитрий Лысенков, Игорь Черневич, Михаил Елисеев, Андрей Погребинский, Вадим Дубровин и др.

Описание:
Игорь Соколовский давно перестал быть тем Мажором, для которого служба в полиции – вынужденная «ссылка». Давняя смерть матери и недавнее убийство отца – два события, определившие его дальнейшую жизнь – могут быть раскрыты во многом благодаря этой службе. Мажор растёт как профессионал, ежедневно работая над раскрытием различных преступлений.. .


Возраст: 16+ (зрителям, достигшим 16 лет)
Дата российской премьеры: 29 октября 2018 (Первый канал)

Продолжительность: ~00:48:00 серия
Качество видео: HDTVRip

Видео: Xvid, 720x400 (16:9), ~1427 Kbps
Аудио: AC3, 2 ch, 192 kbps

Mediainfo:


Общее
Полное имя : D:\Мои фильмы\Mazhor_S3_1-16iz16_2018_XviD_HDTVRip_\Mazhor_S3_01.avi
Формат : AVI
Формат/Информация : Audio Video Interleave
Размер файла : 555 Мбайт
Продолжительность : 47 м. 39 с.
Общий поток : 1628 Кбит/сек
Библиотека кодирования : VirtualDub2 build 41867/release

Видео
Идентификатор : 0
Формат : MPEG-4 Visual
Профиль формата : Advanced Simple@L5
Настройки формата : BVOP2
Параметр BVOP формата : 2
Параметр QPel формата : Нет
Параметр GMC формата : Без точки перехода
Параметр матрицы формата : Default (H.263)
Идентификатор кодека : XVID
Идентификатор кодека/Подсказка : XviD
Продолжительность : 47 м. 39 с.
Битрейт : 1427 Кбит/сек
Ширина : 720 пикселей
Высота : 400 пикселей
Соотношение сторон : 16:9
Частота кадров : 25,000 кадров/сек
Цветовое пространство : YUV
Субдискретизация насыщенности : 4:2:0
Битовая глубина : 8 бит
Тип развёртки : Прогрессивная
Метод сжатия : С потерями
Бит/(Пиксели*Кадры) : 0.198
Размер потока : 486 Мбайт (88%)
Библиотека кодирования : XviD 67

Аудио
Идентификатор : 1
Формат : AC-3
Формат/Информация : Audio Coding 3
Коммерческое название : Dolby Digital
Идентификатор кодека : 2000
Продолжительность : 47 м. 39 с.
Вид битрейта : Постоянный
Битрейт : 192 Кбит/сек
Каналы : 2 канала
Channel layout : L R
Частота : 48,0 КГц
Частота кадров : 31,250 кадров/сек (1536 SPF)
Битовая глубина : 16 бит
Метод сжатия : С потерями
Размер потока : 65,5 Мбайт (12%)
Выравнивание : Соединение по промежуткам
Продолжительность промежутка : 40 мс. (1,00 видеокадр)
Время предзагрузки промежутка : 512 мс.
ServiceKind/String : Complete Main
Скриншоты:


Все одноименные релизы в Клубе

Смотреть Online

http://moonwalk.cc/serial/44a168b26732ab55b70bd1d8d6c9e8e8/iframe
Детали торрента:
Название:Мажор (2018) HDTVRip (сезон 3, серии 1-16 из 16)
Дата добавления:16 Ноя 2018 06:13:54
Размер:8,68 GB
Раздают:94
Качают:23
Форум:Отечественные сериалы

All rights reserved © 2015-2018