TORRENTS45.XYZ

Скачать Камеди Клаб / Комеди Клаб / Comedy Club (2018.11.09) HDTV [H.264/1080p-LQ]


Камеди Клаб / Комеди Клаб / Comedy Club (2018.11.09) HDTV [H.264/1080p-LQ]
Телекомпания: ТНТ HD
Жанр: Юмор

Ведущий: Павел Воля, Гарик Харламов

Описание:
Есть несколько вещей, которые происходят каждую осень — девушки устраивают фотосессии со всеми опавшими листьями в парке, Instagram заполняется грустными поэмами об ушедшем лете, а на телеканале ТНТ выходят новые выпуски Comedy Club!

Продолжительность: 00:43:24
Качество видео: HDTV
Субтитры: Отсутствуют

Видео: AVC/H.264, 1920x1080 (16:9), ~4000 Kbps
Аудио: AC3, 2 ch, 192 Kbps

Mediainfo:


General
Unique ID : 176388849886370028598375577795002381104 (0x84B341BCAD139B3291847994FFBC3330)
Complete name : D:\Humor\Comedy\Comedy Club 488 (09-11-2018).mkv
Format : Matroska
Format version : Version 2
File size : 1.30 GiB
Duration : 43mn 24s
Overall bit rate mode : Variable
Overall bit rate : 4 275 Kbps
Encoded date : UTC 2018-11-10 07:40:27
Writing application : mkvmerge v6.1.0 ('Old Devil') built on Mar 4 2013 09:10:42
Writing library : libebml v1.3.0 + libmatroska v1.4.0

Video
ID : 1
Format : AVC
Format/Info : Advanced Video Codec
Format profile : High@L4.0
Format settings, CABAC : Yes
Format settings, ReFrames : 4 frames
Codec ID : V_MPEG4/ISO/AVC
Duration : 43mn 24s
Bit rate mode : Variable
Bit rate : 3 998 Kbps
Maximum bit rate : 4 500 Kbps
Width : 1 920 pixels
Height : 1 080 pixels
Display aspect ratio : 16:9
Frame rate mode : Constant
Frame rate : 25.000 fps
Color space : YUV
Chroma subsampling : 4:2:0
Bit depth : 8 bits
Scan type : Progressive
Bits/(Pixel*Frame) : 0.077
Stream size : 1.21 GiB (94%)
Default : Yes
Forced : No

Audio
ID : 2
Format : AC-3
Format/Info : Audio Coding 3
Mode extension : CM (complete main)
Format settings, Endianness : Big
Codec ID : A_AC3
Duration : 43mn 24s
Bit rate mode : Constant
Bit rate : 192 Kbps
Channel count : 2 channels
Channel positions : Front: L R
Sampling rate : 48.0 KHz
Bit depth : 16 bits
Compression mode : Lossy
Stream size : 59.6 MiB (4%)
Default : Yes
Forced : No
Скриншоты:


Все одноименные релизы в Клубе
Детали торрента:
Название:Камеди Клаб / Комеди Клаб / Comedy Club (2018.11.09) HDTV [H.264/1080p-LQ]
Дата добавления:10 Ноя 2018 10:55:09
Размер:1,3 GB
Раздают:7
Качают:0
Форум:ПостКВН

All rights reserved © 2015-2019