TORRENTS45.XYZ

Скачать Манифест / Декларация / Manifest (2018) WEB-DL [H.264/1080p-LQ] (сезон 1, серии 1-15 из 16) TVShows (обновляемая)


Манифест / Декларация / Manifest (2018) WEB-DL [H.264/1080p-LQ] (сезон 1, серии 1-15 из 16)
Производство: США
Жанр: драма, детектив

Режиссер: Пол Холахан, Феликс Энрикез Алькала, Дэвид Фрэнкел
Актеры: Мелисса Роксбур, Джошуа Даллас, Афина Карканис, Дж.Р. Рамирез, Луна Блэйз Бойд, Джек Мессина, Парвин Каур, Тим Мориарти, Альфредо Нарцисо, Дэрил Эдвардс и др.

Описание: Окутанная тайнами история произошла с пассажирами и экипажем рейса Монтего 828. Люди, находившиеся в небе несколько часов, попали будто бы во временную петлю, которая заставила их провести пять лет в полете. Однако для главных действующих лиц этот перелет казался мигом. Главные персонажи, которые находились на борту самолета, после приземления обнаруживают, что мир изменился до неузнаваемости. Первое, что они хотят узнать - что стало с их родным и близкими. На удивление многих, жизнь настолько круто перевернулась, что все те, кого они когда-то любили, уже начали новую жизнь без надежды на то, что когда-то встретят близких, полетевших злополучным рейсом.


Возраст: 16+ (зрителям, достигшим 16 лет)
Дата мировой премьеры: 24 сентября 2018

Продолжительность: ~00:43:00 серия
Качество видео: WEB-DL
Перевод: Многоголосый закадровый, любительский - TVShows
Субтитры: английские

Видео: AVC/H.264, 1920х1080 (16:9), ~8850 kbps
Аудио 1: AC3, 6 ch, 384 kbps - русский, многоголосый закадровый
Аудио 2: E-AC3, 6 ch, 640 kbps - английский

Mediainfo:


General
Unique ID : 332178302554073660487685439039427420519 (0xF9E736C7294F9B9DFD94F0AE98FDA167)
Complete name : C:\Users\вов\Desktop\Manifest.S01.1080p.TVShows\Manifest.S01E01.1080p.TVShows.mkv
Format : Matroska
Format version : Version 4 / Version 2
File size : 2.93 GiB
Duration : 42 min 32 s
Overall bit rate mode : Variable
Overall bit rate : 9 876 kb/s
Encoded date : UTC 2018-10-27 08:20:14
Writing application : mkvmerge v24.0.0 ('Beyond The Pale') 64-bit
Writing library : libebml v1.3.6 + libmatroska v1.4.9

Video
ID : 1
Format : AVC
Format/Info : Advanced Video Codec
Format profile : High@L4
Format settings : CABAC / 4 Ref Frames
Format settings, CABAC : Yes
Format settings, ReFrames : 4 frames
Codec ID : V_MPEG4/ISO/AVC
Duration : 42 min 32 s
Bit rate mode : Variable
Bit rate : 8 850 kb/s
Maximum bit rate : 15.0 Mb/s
Width : 1 920 pixels
Height : 1 080 pixels
Display aspect ratio : 16:9
Frame rate mode : Constant
Frame rate : 23.976 (24000/1001) FPS
Color space : YUV
Chroma subsampling : 4:2:0
Bit depth : 8 bits
Scan type : Progressive
Bits/(Pixel*Frame) : 0.178
Stream size : 2.63 GiB (90%)
Default : Yes
Forced : No
Color range : Limited
Color primaries : BT.709
Transfer characteristics : BT.709
Matrix coefficients : BT.709

Audio #1
ID : 2
Format : AC-3
Format/Info : Audio Coding 3
Codec ID : A_AC3
Duration : 42 min 31 s
Bit rate mode : Constant
Bit rate : 384 kb/s
Channel(s) : 6 channels
Channel positions : Front: L C R, Side: L R, LFE
Sampling rate : 48.0 kHz
Frame rate : 31.250 FPS (1536 SPF)
Bit depth : 16 bits
Compression mode : Lossy
Stream size : 117 MiB (4%)
Title : TVShows
Language : Russian
Service kind : Complete Main
Default : Yes
Forced : No

Audio #2
ID : 3
Format : E-AC-3
Format/Info : Enhanced Audio Coding 3
Codec ID : A_EAC3
Duration : 42 min 31 s
Bit rate mode : Constant
Bit rate : 640 kb/s
Channel(s) : 6 channels
Channel positions : Front: L C R, Side: L R, LFE
Sampling rate : 48.0 kHz
Frame rate : 187.500 FPS (256 SPF)
Compression mode : Lossy
Stream size : 195 MiB (6%)
Title : Original
Language : English
Service kind : Complete Main
Default : No
Forced : No

Text
ID : 4
Format : UTF-8
Codec ID : S_TEXT/UTF8
Codec ID/Info : UTF-8 Plain Text
Duration : 42 min 23 s
Bit rate : 74 b/s
Count of elements : 800
Stream size : 23.1 KiB (0%)
Title : English
Language : English
Default : No
Forced : No

Внимание! Раздача ведётся путём добавления новых серий

Внимание! Раздача ведётся путём добавления новых серий; при каждом добавлении создаётся новый торрент.
Чтобы начать докачку новой серии, пользователям необходимо сделать следующее:
1. Остановить скачивание;
2. Удалить старый торрент у себя из клиента (старые серии удалять не надо);
3. Скачать новый торрент и запустить его у себя в клиенте вместо старого, при этом указать клиенту путь в старую папку куда и должно происходить скачивание новых серий. Ваш клиент при этом должен произвести хеширование (проверку) старой папки и будет докачивать только те серии, которых у вас ещё нет. Старые серии при этом не удаляются, а продолжают раздаваться! Eсли вы уже удалили старые серии, то предотвратить повторную закачку старых серий можно, отжав галочку в соответствующих местах при запуске нового торрента.
Скриншоты:


Все одноименные релизы в Клубе

Смотреть Online


Детали торрента:
Название:Манифест / Декларация / Manifest (2018) WEB-DL [H.264/1080p-LQ] (сезон 1, серии 1-15 из 16) TVShows (обновляемая)
Дата добавления:19 Фев 2019 08:28:22
Размер:37,3 GB
Раздают:2
Качают:10
Форум:Зарубежные сериалы

All rights reserved © 2015-2019