TORRENTS45.XYZ

Скачать Кин / Kin (2018) WEB-DL [H.264/1080p-LQ]


Кин / Kin (2018) WEB-DL [H.264/1080p-LQ]
Производство: США / 21 Laps Entertainment, Lionsgate, No Trace Camping
Жанр: Фантастика, боевик

Режиссер: Джонатан Бэйкер, Джош Бэйкер
Актеры: Майлс Труитт, Джек Рейнор, Дэннис Куэйд, Зои Кравиц, Джеймс Франко, Кэрри Кун, Йен Мэтьюз, Гэвин Фокс, Стефан Гарно, Лукас Пенар

Описание:
Обнаружив инопланетное оружие, об истинной мощи которого можно только догадываться, обычный школьник оказывается в эпицентре крупных проблем: охоту на него и его брата открывает армия пришельцев, спецслужбы и гангстеры.
Он не выбирал эту судьбу, но теперь только от него зависит — спасет загадочный артефакт наш мир или погубит…


Возраст: 16+ (зрителям, достигшим 16 лет)
Рейтинг MPAA: PG-13 (детям до 13 лет просмотр нежелателен)
Дата мировой премьеры: 29 августа 2018
Дата премьеры в России: 6 сентября 2018


Продолжительность: 01:42:42
Качество видео: WEB-DL
Перевод: Дублированный (iTunes)
Субтитры: Английские (SDH)

Видео: AVC/H.264, 1920x800, ~4686 Kbps
Аудио #1: AC3, 6 ch, 384 Kbps- Русский
Аудио #2: AC3, 6 ch, 640 Kbps- Английский

MediaInfo:


Общее
Уникальный идентификатор : 91343742318238244178946463682288035163 (0x44B82A3405E63A1D54B917D6499E255B)
Полное имя : E:\NNM\Кин\Kin 2018 WEB-DL 1080p-LQ.mkv
Формат : Matroska
Версия формата : Version 4 / Version 2
Размер файла : 4,10 Гбайт
Продолжительность : 1 ч. 42 м.
Общий поток : 5712 Кбит/сек
Дата кодирования : UTC 2018-11-08 21:22:34
Программа кодирования : mkvmerge v28.2.0 ('The Awakening') 64-bit
Библиотека кодирования : libebml v1.3.6 + libmatroska v1.4.9

Видео
Идентификатор : 1
Формат : AVC
Формат/Информация : Advanced Video Codec
Профиль формата : High@L4
Настройки формата : CABAC / 4 Ref Frames
Параметр CABAC формата : Да
Параметр RefFrames формата : 4 кадра
Идентификатор кодека : V_MPEG4/ISO/AVC
Продолжительность : 1 ч. 42 м.
Битрейт : 4686 Кбит/сек
Ширина : 1920 пикселей
Высота : 800 пикселей
Соотношение сторон : 2,40:1
Режим частоты кадров : Постоянный
Частота кадров : 23,976 (24000/1001) кадра/сек
Цветовое пространство : YUV
Субдискретизация насыщенности : 4:2:0
Битовая глубина : 8 бит
Тип развёртки : Прогрессивная
Бит/(Пиксели*Кадры) : 0.127
Размер потока : 3,36 Гбайт (82%)
Заголовок : AMZN
Язык : English
Default : Да
Forced : Нет
Цветовой диапазон : Limited
Основные цвета : BT.709
Характеристики трансфера : BT.709
Коэффициенты матрицы : BT.709

Аудио #1
Идентификатор : 2
Формат : AC-3
Формат/Информация : Audio Coding 3
Идентификатор кодека : A_AC3
Продолжительность : 1 ч. 42 м.
Вид битрейта : Постоянный
Битрейт : 384 Кбит/сек
Каналы : 6 каналов
Расположение каналов : Front: L C R, Side: L R, LFE
Частота : 48,0 КГц
Частота кадров : 31,250 кадров/сек (1536 SPF)
Битовая глубина : 16 бит
Метод сжатия : С потерями
Размер потока : 282 Мбайт (7%)
Заголовок : iTunes
Язык : Russian
ServiceKind/String : Complete Main
Default : Да
Forced : Да

Аудио #2
Идентификатор : 3
Формат : AC-3
Формат/Информация : Audio Coding 3
Идентификатор кодека : A_AC3
Продолжительность : 1 ч. 42 м.
Вид битрейта : Постоянный
Битрейт : 640 Кбит/сек
Каналы : 6 каналов
Расположение каналов : Front: L C R, Side: L R, LFE
Частота : 48,0 КГц
Частота кадров : 31,250 кадров/сек (1536 SPF)
Битовая глубина : 16 бит
Метод сжатия : С потерями
Размер потока : 470 Мбайт (11%)
Заголовок : Original
Язык : English
ServiceKind/String : Complete Main
Default : Нет
Forced : Нет

Текст
Идентификатор : 4
Формат : UTF-8
Идентификатор кодека : S_TEXT/UTF8
Идентификатор кодека/Информация : UTF-8 Plain Text
Продолжительность : 1 ч. 36 м.
Битрейт : 50 бит/сек
ElementCount : 1397
Размер потока : 35,8 Кбайт (0%)
Заголовок : SDH
Язык : English
Default : Нет
Forced : Нет

Меню
00:00:00.000 : en:1
00:07:31.000 : en:2
00:17:57.000 : en:3
00:27:19.000 : en:4
00:37:52.000 : en:5
00:46:41.000 : en:6
00:56:58.000 : en:7
01:06:37.000 : en:8
01:15:09.000 : en:9
01:25:50.000 : en:10
01:36:26.000 : en:11
Скриншоты:


Все одноименные релизы в Клубе

Смотреть Online

http://moonwalk.cc/video/d83a3d3001b5350f/iframe
Детали торрента:
Название:Кин / Kin (2018) WEB-DL [H.264/1080p-LQ]
Дата добавления:09 Ноя 2018 01:47:03
Размер:4,1 GB
Раздают:11
Качают:23
Форум:Зарубежные Новинки (HD*Rip/LQ, DVDRip)

All rights reserved © 2015-2018