TORRENTS45.XYZ

Скачать Кин / Kin (2018) WEB-DLRip


Кин / Kin (2018) WEB-DLRip
Производство: США / 21 Laps Entertainment, Lionsgate, No Trace Camping
Жанр: Фантастика, боевик

Режиссер: Джонатан Бэйкер, Джош Бэйкер
Актеры: Майлс Труитт, Джек Рейнор, Дэннис Куэйд, Зои Кравиц, Джеймс Франко, Кэрри Кун, Йен Мэтьюз, Гэвин Фокс, Стефан Гарно, Лукас Пенар

Описание:
Обнаружив инопланетное оружие, об истинной мощи которого можно только догадываться, обычный школьник оказывается в эпицентре крупных проблем: охоту на него и его брата открывает армия пришельцев, спецслужбы и гангстеры.
Он не выбирал эту судьбу, но теперь только от него зависит — спасет загадочный артефакт наш мир или погубит…


Возраст: 16+ (зрителям, достигшим 16 лет)
Рейтинг MPAA: PG-13 (детям до 13 лет просмотр нежелателен)
Дата мировой премьеры: 29 августа 2018
Дата премьеры в России: 6 сентября 2018


Продолжительность: 01:42:42
Качество видео: WEB-DLRip
Перевод: Дублированный (iTunes)
Субтитры: Отсутствуют

Видео: XviD, 720x304, ~1644 Kbps
Аудио: AC-3, 6 ch, 384 Kbps

MediaInfo:


Общее
Полное имя : E:\NNM\Кин\Kin 2018 WEB-DLRip.avi
Формат : AVI
Формат/Информация : Audio Video Interleave
Размер файла : 1,46 Гбайт
Продолжительность : 1 ч. 42 м.
Общий поток : 2037 Кбит/сек
Программа кодирования : VirtualDubMod 1.5.10.3 | www.virtualdub-fr.org || (build 2550/release)
Библиотека кодирования : VirtualDubMod build 2550/release

Видео
Идентификатор : 0
Формат : MPEG-4 Visual
Профиль формата : Advanced Simple@L5
Настройки формата : BVOP1 / Custom Matrix
Параметр BVOP формата : 1
Параметр QPel формата : Нет
Параметр GMC формата : Без точки перехода
Параметр матрицы формата : Выборочная
Идентификатор кодека : XVID
Идентификатор кодека/Подсказка : XviD
Продолжительность : 1 ч. 42 м.
Битрейт : 1644 Кбит/сек
Ширина : 720 пикселей
Высота : 304 пикселя
Соотношение сторон : 2,35:1
Частота кадров : 23,976 (24000/1001) кадра/сек
Цветовое пространство : YUV
Субдискретизация насыщенности : 4:2:0
Битовая глубина : 8 бит
Тип развёртки : Прогрессивная
Метод сжатия : С потерями
Бит/(Пиксели*Кадры) : 0.313
Размер потока : 1,18 Гбайт (81%)
Библиотека кодирования : XviD 73

Аудио
Идентификатор : 1
Формат : AC-3
Формат/Информация : Audio Coding 3
Идентификатор кодека : 2000
Продолжительность : 1 ч. 42 м.
Вид битрейта : Постоянный
Битрейт : 384 Кбит/сек
Каналы : 6 каналов
Расположение каналов : Front: L C R, Side: L R, LFE
Частота : 48,0 КГц
Частота кадров : 31,250 кадров/сек (1536 SPF)
Битовая глубина : 16 бит
Метод сжатия : С потерями
Размер потока : 282 Мбайт (19%)
Выравнивание : Разделение по промежуткам
Продолжительность промежутка : 42 мс. (1,00 видеокадр)
Время предзагрузки промежутка : 500 мс.
ServiceKind/String : Complete Main
Скриншоты:


Все одноименные релизы в Клубе

Смотреть Online

http://moonwalk.cc/video/d83a3d3001b5350f/iframe
Детали торрента:
Название:Кин / Kin (2018) WEB-DLRip
Дата добавления:09 Ноя 2018 01:32:33
Размер:1,46 GB
Раздают:7
Качают:5
Форум:Зарубежные Новинки (HD*Rip/LQ, DVDRip)

All rights reserved © 2015-2018