TORRENTS45.XYZ

Скачать Досье погоды / The Weather Files (2018) HDTVRip [H.264/1080p-LQ] (Серии 1-3 из 5) (Обновляемая)


Досье погоды / The Weather Files (2018) HDTVRip [H.264/1080p-LQ] (Серии 1-3 из 5)
Производство: Канада, Blue Ant Media
Жанр: Документальный, природа, катаклизмы
Режиссер: Маршалл Джей Каплан

Описание:
На земле, на суше и на дальнем Севере, вас ждут приключения тех, кто ежедневно сталкивается с непредсказуемостью и опасностями экстремальных и загадочных погодных условий.



Релиз от: рип Zakol
Продолжительность: серии x ~ 00:46:00
Качество видео: HDTVRip
Перевод: Одноголосый закадровый, профессиональный (SDI Media)
Субтитры: отсутствуют

Видео: AVC/H.264, 1920x1080, ~4000 Kbps
Аудио: AAC, 2 ch, 192 Kbps (текст читал: Владислав Букин)

Mediainfo: (тех. данные всех серий идентичны)


Общее
Уникальный идентификатор : 252121227279883102629609624316136710508 (0xBDACC8393D32D0F471FE228AD138E16C)
Полное имя : F:\КИНО\Досье погоды 1080 (2018)\02 Досье погоды.mkv
Формат : Matroska
Версия формата : Version 4
Размер файла : 1,37 Гбайт
Продолжительность : 46 м. 3 с.
Режим общего битрейта : Переменный
Общий поток : 4257 Кбит/сек
Дата кодирования : UTC 2018-11-08 20:39:46
Программа кодирования : mkvmerge v28.1.0 ('Morning Child') 64-bit
Библиотека кодирования : libebml v1.3.6 + libmatroska v1.4.9

Видео
Идентификатор : 1
Формат : AVC
Формат/Информация : Advanced Video Codec
Профиль формата : High@L4
Настройки формата : CABAC / 4 Ref Frames
Параметр CABAC формата : Да
Параметр RefFrames формата : 4 кадра
Идентификатор кодека : V_MPEG4/ISO/AVC
Продолжительность : 46 м. 3 с.
Вид битрейта : Переменный
Битрейт : 4066 Кбит/сек
Максимальный битрейт : 4500 Кбит/сек
Ширина : 1920 пикселей
Высота : 1080 пикселей
Соотношение сторон : 16:9
Режим частоты кадров : Постоянный
Частота кадров : 25,000 кадров/сек
Цветовое пространство : YUV
Субдискретизация насыщенности : 4:2:0
Битовая глубина : 8 бит
Тип развёртки : Прогрессивная
Бит/(Пиксели*Кадры) : 0.078
Размер потока : 1,31 Гбайт (95%)
Default : Нет
Forced : Нет

Аудио
Идентификатор : 2
Формат : AAC LC
Формат/Информация : Advanced Audio Codec Low Complexity
Идентификатор кодека : A_AAC-2
Продолжительность : 46 м. 2 с.
Битрейт : 192 Кбит/сек
Каналы : 2 канала
Channel layout : L R
Частота : 48,0 КГц
Частота кадров : 46,875 кадров/сек (1024 SPF)
Метод сжатия : С потерями
Размер потока : 62,4 Мбайт (4%)
Язык : Russian
Default : Да
Forced : Нет

Содержание:

1-я серия
Торнадо: муж и жена наблюдают разрушение города, вихрь преследует одного метеоролога, а другой видит один из самых жутких торнадо в истории.
2-я серия
Холод и снег: зачастую, смертоносная комбинация. Внезапное падение температуры запирает в ловушке работника водоканала, пилот попадает в сильный буран, а оператор снегоуборщика застревает в горах.
3-я серия
Турист едва не погибает из-за ветра и упавших деревьев, кислотный дождь становится для экстремала серьезной проблемой, а президент банка рискует жизнью.

Внимание! Раздача ведётся путём добавления новых серий:

При каждом добавлении создаётся новый торрент. Чтобы начать докачку новой серии, пользователям
необходимо сделать следующее:
- Остановить скачивание.
- Удалить старый торрент у себя из клиента (старые серии удалять не надо).
- Скачать новый торрент и запустить его у себя в клиенте вместо старого, при этом указать клиенту путь в старую папку куда и должно происходить скачивание новых серий.
Скриншоты:


Все одноименные релизы в Клубе
Детали торрента:
Название:Досье погоды / The Weather Files (2018) HDTVRip [H.264/1080p-LQ] (Серии 1-3 из 5) (Обновляемая)
Дата добавления:09 Ноя 2018 00:25:27
Размер:4,12 GB
Раздают:8
Качают:1
Форум:Документалистика и Телепередачи

All rights reserved © 2015-2018