TORRENTS45.XYZ

Скачать Досье погоды / The Weather Files (2018) HDTVRip [H.264/1080p-LQ] (Серии 1-8 из 8)


Досье погоды / The Weather Files (2018) HDTVRip [H.264/1080p-LQ] (Серии 1-8 из 8)
Производство: Канада, Blue Ant Media
Жанр: Документальный, природа, катаклизмы
Режиссер: Маршалл Джей Каплан

Описание:
На земле, на суше и на дальнем Севере, вас ждут приключения тех, кто ежедневно сталкивается с непредсказуемостью и опасностями экстремальных и загадочных погодных условий.



Релиз от: рип Zakol
Продолжительность: серии x ~ 00:46:00
Качество видео: HDTVRip
Перевод: Одноголосый закадровый, профессиональный (SDI Media)
Субтитры: отсутствуют

Видео: AVC/H.264, 1920x1080, ~4000 Kbps
Аудио: AAC, 2 ch, 192 Kbps (текст читал: Владислав Букин)

Mediainfo: (тех. данные всех серий идентичны)


Общее
Уникальный идентификатор : 252121227279883102629609624316136710508 (0xBDACC8393D32D0F471FE228AD138E16C)
Полное имя : F:\КИНО\Досье погоды 1080 (2018)\02 Досье погоды.mkv
Формат : Matroska
Версия формата : Version 4
Размер файла : 1,37 Гбайт
Продолжительность : 46 м. 3 с.
Режим общего битрейта : Переменный
Общий поток : 4257 Кбит/сек
Дата кодирования : UTC 2018-11-08 20:39:46
Программа кодирования : mkvmerge v28.1.0 ('Morning Child') 64-bit
Библиотека кодирования : libebml v1.3.6 + libmatroska v1.4.9

Видео
Идентификатор : 1
Формат : AVC
Формат/Информация : Advanced Video Codec
Профиль формата : High@L4
Настройки формата : CABAC / 4 Ref Frames
Параметр CABAC формата : Да
Параметр RefFrames формата : 4 кадра
Идентификатор кодека : V_MPEG4/ISO/AVC
Продолжительность : 46 м. 3 с.
Вид битрейта : Переменный
Битрейт : 4066 Кбит/сек
Максимальный битрейт : 4500 Кбит/сек
Ширина : 1920 пикселей
Высота : 1080 пикселей
Соотношение сторон : 16:9
Режим частоты кадров : Постоянный
Частота кадров : 25,000 кадров/сек
Цветовое пространство : YUV
Субдискретизация насыщенности : 4:2:0
Битовая глубина : 8 бит
Тип развёртки : Прогрессивная
Бит/(Пиксели*Кадры) : 0.078
Размер потока : 1,31 Гбайт (95%)
Default : Нет
Forced : Нет

Аудио
Идентификатор : 2
Формат : AAC LC
Формат/Информация : Advanced Audio Codec Low Complexity
Идентификатор кодека : A_AAC-2
Продолжительность : 46 м. 2 с.
Битрейт : 192 Кбит/сек
Каналы : 2 канала
Channel layout : L R
Частота : 48,0 КГц
Частота кадров : 46,875 кадров/сек (1024 SPF)
Метод сжатия : С потерями
Размер потока : 62,4 Мбайт (4%)
Язык : Russian
Default : Да
Forced : Нет

Содержание:

1-я серия
Торнадо: муж и жена наблюдают разрушение города, вихрь преследует одного метеоролога, а другой видит один из самых жутких торнадо в истории.
2-я серия
Холод и снег: зачастую, смертоносная комбинация. Внезапное падение температуры запирает в ловушке работника водоканала, пилот попадает в сильный буран, а оператор снегоуборщика застревает в горах.
3-я серия
Турист едва не погибает из-за ветра и упавших деревьев, кислотный дождь становится для экстремала серьезной проблемой, а президент банка рискует жизнью.
4-я серия
Муж и жена едва не попадают в самый центр бури, а экстремал чуть не погибает в разбитой машине.
5-я серия
Репортер новостей окружен пожаром, фотожурналист попадает в пожар и оползень, а пара туристов застревает в озере, окруженном огнем.
6-я серия
Рыбак застрял посереди озера в разгар урагана, наблюдатель за ураганами спасает жизни на Филиппинах, а путешественник застревает в гараже во время урагана Катрина.
7-я серия
Путешественник застрял в горах после лавины, наблюдатель за ураганами заперт тайфуном под стойкой отеля, а пара рыболовов не может выбраться из под лодки.
8-я серия
В первый рабочий день стюард испытывает три вида турбулентности, а пилот опасается за свою жизнь, пролетая 800 км между облаками и деревьями.
Скриншоты:


Все одноименные релизы в Клубе
Детали торрента:
Название:Досье погоды / The Weather Files (2018) HDTVRip [H.264/1080p-LQ] (Серии 1-8 из 8)
Дата добавления:15 Дек 2018 17:47:46
Размер:10,9 GB
Раздают:3
Качают:2
Форум:Документалистика и Телепередачи

All rights reserved © 2015-2019