TORRENTS45.XYZ

Скачать Между мирами / Between Worlds (2018) BDRip [H.264] [MVO]


Между мирами / Between Worlds (2018) BDRip [H.264] [MVO]
«There is a Fine Line Between Pleasure and Pain»

Производство: Испания, Rise Up
Жанр: Триллер, мистика, детектив, боевик

Режиссер: Мария Пулера
Продюссер: Eric Banoun, Дэвид Хиллари, Мария Пулера
Актеры: Николас Кейдж, Лидия Хёрст, Франка Потенте, Пенелопа Митчелл, Гарретт Клэйтон, Хоппер Пенн, Дэвид Ли Смит, Бриттани Шоу, Филип Форнах, Том Уильямс, Камерон Макинтайр, Пэрис Браво

Описание:
В жизни Джо произошла трагедия — его жена Мэри умерла, а дочь Билли впала в кому. Чтобы вернуть девушку к жизни, несчастный отец обращается к Джулии, медиуму, которая умеет вызывать умерших. Мужчина обретает надежду, однако во время спиритического ритуала тело Билли захватывает дух Мэри, у которой остались на земле незавершенные дела.


Рейтинг MPAA: R (лицам до 17 лет обязательно присутствие взрослого)
Дата мировой премьеры: 22 сентября 2018

Продолжительность: 01:30:17
Качество видео: BDRip AVC
Перевод: Многоголосый закадровый, профессиональный (HDRezka Studio)
Субтитры: Английские (Full, SDH)

Видео: AVC/H.264, 1024x554, ~2334 Kbps
Аудио 1: AC3, 2 ch, 192 Kbps (Русский)
Аудио 2: AC3, 6 ch, 448 Kbps (Английский)

Mediainfo:


Общее
Уникальный идентификатор : 121026910957317636478592470569490705062 (0x5B0CEF688AD2BD5566640612D195EAA6)
Полное имя : D:\Видео\torrrent\Between.Worlds.2018.BDRip.AVC.mkv
Формат : Matroska
Версия формата : Version 4 / Version 2
Размер файла : 1,87 Гбайт
Продолжительность : 1 ч. 30 м.
Общий поток : 2973 Кбит/сек
Название фильма : Between.Worlds.2018 #TorpedoUK#
Дата кодирования : UTC 2018-11-03 13:46:19
Программа кодирования : mkvmerge v25.0.0 ('Prog Noir') 64-bit
Библиотека кодирования : libebml v1.3.6 + libmatroska v1.4.9
Обложка : Yes
Attachments : cover_land.jpg / small_cover.jpg / small_cover_land.jpg / cover.jpg

Видео
Идентификатор : 1
Формат : AVC
Формат/Информация : Advanced Video Codec
Профиль формата : High@L4.1
Параметр CABAC формата : Да
Параметр RefFrames формата : 10 кадров
Идентификатор кодека : V_MPEG4/ISO/AVC
Продолжительность : 1 ч. 30 м.
Битрейт : 2334 Кбит/сек
Ширина : 1024 пикселя
Высота : 554 пикселя
Соотношение сторон : 1,85:1
Режим частоты кадров : Постоянный
Частота кадров : 23,976 (24000/1001) кадра/сек
Цветовое пространство : YUV
Субдискретизация насыщенности : 4:2:0
Битовая глубина : 8 бит
Тип развёртки : Прогрессивная
Бит/(Пиксели*Кадры) : 0.172
Размер потока : 1,47 Гбайт (78%)
Библиотека кодирования : x264 core 146 r2538 121396c
Настройки программы : cabac=1 / ref=10 / deblock=1:-3:-3 / analyse=0x3:0x113 / me=umh / subme=11 / psy=1 / psy_rd=1.00:0.03 / mixed_ref=1 / me_range=48 / chroma_me=1 / trellis=2 / 8x8dct=1 / cqm=0 / deadzone=21,11 / fast_pskip=1 / chroma_qp_offset=-3 / threads=6 / lookahead_threads=1 / sliced_threads=0 / nr=0 / decimate=1 / interlaced=0 / bluray_compat=0 / constrained_intra=0 / bframes=11 / b_pyramid=2 / b_adapt=2 / b_bias=0 / direct=3 / weightb=1 / open_gop=0 / weightp=2 / keyint=250 / keyint_min=23 / scenecut=40 / intra_refresh=0 / rc_lookahead=40 / rc=2pass / mbtree=0 / bitrate=2334 / ratetol=1.0 / qcomp=0.60 / qpmin=0 / qpmax=69 / qpstep=4 / cplxblur=20.0 / qblur=0.5 / vbv_maxrate=50000 / vbv_bufsize=62500 / nal_hrd=none / filler=0 / ip_ratio=1.40 / pb_ratio=1.30 / aq=1:1.00
Язык : English
Default : Да
Forced : Нет

Аудио #1
Идентификатор : 2
Формат : AC-3
Формат/Информация : Audio Coding 3
Параметр Endianness формата : Big
Идентификатор кодека : A_AC3
Продолжительность : 1 ч. 30 м.
Вид битрейта : Постоянный
Битрейт : 192 Кбит/сек
Каналы : 2 канала
Расположение каналов : Front: L R
Частота : 48,0 КГц
Частота кадров : 31,250 кадров/сек (1536 SPF)
Битовая глубина : 16 бит
Метод сжатия : С потерями
Размер потока : 124 Мбайт (6%)
Заголовок : MVO [HDRezka Studio]
Язык : Russian
ServiceKind/String : Complete Main
Default : Да
Forced : Нет

Аудио #2
Идентификатор : 3
Формат : AC-3
Формат/Информация : Audio Coding 3
Параметр Endianness формата : Big
Идентификатор кодека : A_AC3
Продолжительность : 1 ч. 30 м.
Вид битрейта : Постоянный
Битрейт : 448 Кбит/сек
Каналы : 6 каналов
Расположение каналов : Front: L C R, Side: L R, LFE
Частота : 48,0 КГц
Частота кадров : 31,250 кадров/сек (1536 SPF)
Битовая глубина : 16 бит
Метод сжатия : С потерями
Размер потока : 289 Мбайт (15%)
Заголовок : [Original]
Язык : English
ServiceKind/String : Complete Main
Default : Нет
Forced : Нет

Текст #1
Идентификатор : 4
Формат : UTF-8
Идентификатор кодека : S_TEXT/UTF8
Идентификатор кодека/Информация : UTF-8 Plain Text
Продолжительность : 1 ч. 19 м.
Битрейт : 53 бит/сек
ElementCount : 960
Размер потока : 31,5 Кбайт (0%)
Заголовок : Full
Язык : English
Default : Нет
Forced : Нет

Текст #2
Идентификатор : 5
Формат : UTF-8
Идентификатор кодека : S_TEXT/UTF8
Идентификатор кодека/Информация : UTF-8 Plain Text
Продолжительность : 1 ч. 19 м.
Битрейт : 53 бит/сек
ElementCount : 1138
Размер потока : 31,4 Кбайт (0%)
Заголовок : SDH
Язык : English
Default : Нет
Forced : Нет

Меню
00:00:00.000 : en:Chapter 01
00:05:35.043 : en:Chapter 02
00:14:21.151 : en:Chapter 03
00:21:00.342 : en:Chapter 04
00:28:20.740 : en:Chapter 05
00:37:01.844 : en:Chapter 06
00:45:21.218 : en:Chapter 07
00:54:06.409 : en:Chapter 08
01:00:20.283 : en:Chapter 09
01:06:12.468 : en:Chapter 10
01:12:46.153 : en:Chapter 11
01:22:57.722 : en:Chapter 12
Скриншоты:


Все одноименные релизы в Клубе

Смотреть Online

http://moonwalk.cc/video/fea5e5ff20ec8f8c/iframe
Детали торрента:
Название:Между мирами / Between Worlds (2018) BDRip [H.264] [MVO]
Дата добавления:08 Ноя 2018 21:31:47
Размер:1,87 GB
Раздают:23
Качают:3
Форум:Зарубежные Новинки (HD*Rip/LQ, DVDRip)

All rights reserved © 2015-2018