TORRENTS45.XYZ

Скачать Ольга (2018) HDTV [H.264/1080i-LQ] (сезон 3, серии 1-16 из 16+ фильм о фильме)


Ольга (2018) HDTV [H.264/1080i-LQ]
Производство: Россия / Good Story Media
Жанр: комедия

Режиссер: Алексей Нужный, Игорь Волошин
Актеры: Яна Троянова, Гоша Куценко, Ксения Суркова, Сергей Романович, Мухаммед Абу-Ризик, Алина Алексеева, Василий Кортуков, Максим Костромыкин, Филипп Ершов, Александр Шам и др.

Описание:
Третий сезон «Ольги» отличает повышенная событийность: в каждой серии сюжет может менять ход три-четыре раза, так что не совсем понятно, в какой тупик на этот раз придут герои. И каким образом из него вообще будут выбераться. Юмор имеет терапевтический эффект, ведь относиться всерьез к такому валу проблем попросту вредно для организма. В новых сериях Ольга и компания, как в сказке про репку, продолжат тащить друг друга из болота обыденности и безнадеги, в которое иногда заводит героев необычайно смешная и по-своему счастливая жизнь.


Возраст: 16+ (зрителям, достигшим 16 лет)

Продолжительность: ~00:25:00 серия
Качество видео: HDTV

Видео: AVC/H.264, 1920x1080 (16:9), ~7100 Kbps
Аудио: mp2, 2 ch, 192 Kbps

Mediainfo:


General
ID : 1 (0x1)
Complete name : F:\СЕРИАЛЫ\ОЛЬГА\Olga.S03.2018.HDTV.(1080i).Nikolspup\Olga.s03e01.2018.HDTV.(1080i).Nikolspup.ts
Format : MPEG-TS
File size : 1.21 GiB
Duration : 22 min 54 s
Overall bit rate mode : Variable
Overall bit rate : 7 588 kb/s

Video
ID : 256 (0x100)
Menu ID : 1 (0x1)
Format : AVC
Format/Info : Advanced Video Codec
Format profile : High@L4.1
Format settings : CABAC / 3 Ref Frames
Format settings, CABAC : Yes
Format settings, ReFrames : 3 frames
Codec ID : 27
Duration : 22 min 54 s
Bit rate mode : Constant
Bit rate : 7 020 kb/s
Nominal bit rate : 7 875 kb/s
Width : 1 920 pixels
Height : 1 080 pixels
Display aspect ratio : 16:9
Frame rate : 25.000 FPS
Standard : PAL
Color space : YUV
Chroma subsampling : 4:2:0
Bit depth : 8 bits
Scan type : Progressive
Bits/(Pixel*Frame) : 0.135
Stream size : 1.12 GiB (93%)
Color range : Limited
Color primaries : BT.709
Transfer characteristics : BT.709
Matrix coefficients : BT.709

Audio
ID : 307 (0x133)
Menu ID : 1 (0x1)
Format : MPEG Audio
Format version : Version 1
Format profile : Layer 2
Codec ID : 3
Duration : 22 min 54 s
Bit rate mode : Constant
Bit rate : 192 kb/s
Channel(s) : 2 channels
Sampling rate : 48.0 kHz
Frame rate : 41.667 FPS (1152 SPF)
Compression mode : Lossy
Stream size : 31.5 MiB (3%)
Language : Russian
Скриншоты:


Все одноименные релизы в Клубе

Смотреть Online

Детали торрента:
Название:Ольга (2018) HDTV [H.264/1080i-LQ] (сезон 3, серии 1-16 из 16+ фильм о фильме)
Дата добавления:30 Ноя 2018 13:40:24
Размер:20 GB
Раздают:33
Качают:4
Форум:Отечественные сериалы

All rights reserved © 2015-2019