TORRENTS45.XYZ

Скачать Мыслить как преступник / Criminal Minds (2018) WEB-DL [H.264/1080p] (cезон 14, серии 1-15 из 22) TVShows (обновляемая)


Мыслить как преступник / Criminal Minds (2018) WEB-DL [H.264/1080p] (cезон 14, серии 1-15 из 22)
Производство: США, Канада
Жанр: триллер, драма, криминал, детектив

Режиссер: Гленн Кершоу
Актеры: Джо Мантенья, Мэттью Грэй Габлер, Эй Джей Кук, Кирстен Вангснесс, Аиша Тайлер, Адам Родригез, Томас Гибсон и др.

Описание: В Сиэтле за короткое время пропали без вести четыре молодые девушки. Возникает версия, что в городе появился серийный маньяк-убийца. За расследование этого криминального случая берется спецподразделение ФБР, специализирующееся на поведенческом анализе действий преступников.
Во главе этого подразделения стоит Джейсон Гидеон, который со своими напарниками пытается вычислить преступника, создавая его психологический портрет. Джейсон — не частый гость криминалистических лабораторий ФБР. Он и его команда выезжают на места преступлений, опрашивают свидетелей, анализируют и изучают психологическую сторону жизни преступника…


Возраст: 16+ (зрителям, достигшим 16 лет)

Продолжительность: ~00:45:00 серия
Качество видео: WEB-DL
Перевод: Многоголосый закадровый, любительский | TVShows
Субтитры: английские

Видео: AVC/H.264, 1920x1080 (16:9), ~8437 kbps
Аудио 1: AC3, 6 ch, 384 kbps - русский, многоголосый закадровый
Аудио 2: E-AC3, 6 ch, 640 kbps - английский

Mediainfo:


Общее
Уникальный идентификатор : 138535531823675476815088071867740990766 (0x6838F910A29B570DB392BE879B442D2E)
Полное имя : I:\torrents45.xyz\Залито\Criminal.Minds.S14.1080p.TVShows\Criminal.Minds.S14E01.1080p.TVShows.mkv
Формат : Matroska
Версия формата : Version 4 / Version 2
Размер файла : 2,76 Гбайт
Продолжительность : 41 м. 41 с.
Общий поток : 9464 Кбит/сек
Дата кодирования : UTC 2018-10-30 12:04:58
Программа кодирования : mkvmerge v28.2.0 ('The Awakening') 64-bit
Библиотека кодирования : libebml v1.3.6 + libmatroska v1.4.9

Видео
Идентификатор : 1
Формат : AVC
Формат/Информация : Advanced Video Codec
Профиль формата : High@L4
Параметр CABAC формата : Да
Параметр ReFrames формата : 4 кадра
Идентификатор кодека : V_MPEG4/ISO/AVC
Продолжительность : 41 м. 41 с.
Битрейт : 8437 Кбит/сек
Ширина : 1920 пикселей
Высота : 1080 пикселей
Соотношение сторон : 16:9
Режим частоты кадров : Постоянный
Частота кадров : 23,976 (24000/1001) кадра/сек
Цветовое пространство : YUV
Субдискретизация насыщенности : 4:2:0
Битовая глубина : 8 бит
Тип развёртки : Прогрессивная
Бит/(Пиксели*Кадры) : 0.170
Размер потока : 2,46 Гбайт (89%)
Default : Да
Forced : Нет
Цветовой диапазон : Limited
Основные цвета : BT.709
Характеристики трансфера : BT.709
Коэффициенты матрицы : BT.709

Аудио #1
Идентификатор : 2
Формат : AC-3
Формат/Информация : Audio Coding 3
Параметр Endianness формата : Big
Идентификатор кодека : A_AC3
Продолжительность : 41 м. 41 с.
Вид битрейта : Постоянный
Битрейт : 384 Кбит/сек
Каналы : 6 каналов
Расположение каналов : Front: L C R, Side: L R, LFE
Частота : 48,0 КГц
Частота кадров : 31,250 кадров/сек (1536 spf)
Битовая глубина : 16 бит
Метод сжатия : С потерями
Размер потока : 115 Мбайт (4%)
Заголовок : TVShows
Язык : Russian
ServiceKind/String : Complete Main
Default : Да
Forced : Да

Аудио #2
Идентификатор : 3
Формат : E-AC-3
Формат/Информация : Enhanced Audio Coding 3
Параметр Endianness формата : Big
Идентификатор кодека : A_EAC3
Продолжительность : 41 м. 41 с.
Вид битрейта : Постоянный
Битрейт : 640 Кбит/сек
Каналы : 6 каналов
Расположение каналов : Front: L C R, Side: L R, LFE
Частота : 48,0 КГц
Частота кадров : 187,500 кадров/сек (256 spf)
Метод сжатия : С потерями
Размер потока : 191 Мбайт (7%)
Заголовок : Original
Язык : English
ServiceKind/String : Complete Main
Default : Нет
Forced : Нет

Текст
Идентификатор : 4
Формат : UTF-8
Идентификатор кодека : S_TEXT/UTF8
Идентификатор кодека/Информация : UTF-8 Plain Text
Продолжительность : 41 м. 27 с.
Битрейт : 90 бит/сек
ElementCount : 835
Размер потока : 27,3 Кбайт (0%)
Заголовок : English
Язык : English
Default : Нет
Forced : Нет

Внимание! Раздача ведётся путём добавления новых серий

Внимание! Раздача ведётся путём добавления новых серий; при каждом добавлении создаётся новый торрент.
Чтобы начать докачку новой серии, пользователям необходимо сделать следующее:
1. Остановить скачивание;
2. Удалить старый торрент у себя из клиента (старые серии удалять не надо);
3. Скачать новый торрент и запустить его у себя в клиенте вместо старого, при этом указать клиенту путь в старую папку куда и должно происходить скачивание новых серий. Ваш клиент при этом должен произвести хеширование (проверку) старой папки и будет докачивать только те серии, которых у вас ещё нет. Старые серии при этом не удаляются, а продолжают раздаваться! Eсли вы уже удалили старые серии, то предотвратить повторную закачку старых серий можно, отжав галочку в соответствующих местах при запуске нового торрента.
Скриншоты:


Все одноименные релизы в Клубе

Смотреть Online


Детали торрента:
Название:Мыслить как преступник / Criminal Minds (2018) WEB-DL [H.264/1080p] (cезон 14, серии 1-15 из 22) TVShows (обновляемая)
Дата добавления:11 Фев 2019 14:29:24
Размер:54,5 GB
Раздают:13
Качают:5
Форум:Зарубежные сериалы

All rights reserved © 2015-2019