TORRENTS45.XYZ

Скачать Indigo Egg - Discography 5 Releases (1996-2018) ...txt [FLAC|Lossless|WEB-DL|tracks+.cue, tracks] <Ambient, Dub, Abstract, Tribal, Psychill, Downtempo>


Îndigo Egg Discography

Жанр: Ambient, Dub, Abstract, Tribal, Psychill, Downtempo • Страна: UK • Год издания: 1996-2018 • Тип издания: CD, WEB
Аудиокодек: FLAC (*.flac) • Тип рипа: tracks+.cue, tracks • Продолжительность: 06:15:16 • Источник: What, bandcamp
Треклист:

1996 Microcosmacrocosm (Älien Mutation vs Îndigo Egg) (WEB 2013)

Год выпуска: 2013
Жанр: Dub/Ambient/Tribal/Trance
Продолжительность: 01:06:36
Треклист:

01. Part One <> Nueroscopic Bubbling Pond Life (11:12)
02. Part Two <> Gateway To The Sun (11:49)
03. Part Three <> Another Trip In The Forest (12:05)
04. Part Four <> Journey To IX Land (09:59)
05. Part Five <> Cloudhopping (08:22)
06. Part Six <> Sea Of Tranquility (13:09)

Лог проверки качества


-----------------------

DON'T MODIFY THIS FILE

-----------------------

PERFORMER: auCDtect Task Manager, ver. 1.6.0 RC1 build 1.6.0.1
Copyright (c) 2008-2010 y-soft. All rights reserved
http://y-soft.org

ANALYZER: auCDtect: CD records authenticity detector, version 0.8.2
Copyright (c) 2004 Oleg Berngardt. All rights reserved.
Copyright (c) 2004 Alexander Djourik. All rights reserved.

FILE: 06. Part Six -- Sea Of Tranquility.flac
Size: 80384874 Hash: 23A9EBBC4CD61AEAF68D0F2A2614FF58 Accuracy: -m0
Conclusion: ???
Signature: 04FFC6EE1D10A60F122213C77C96ACDA5CF944D9
FILE: 05. Part Five -- Cloudhopping.flac
Size: 58499555 Hash: C21B25BD5577988BCAA084512139572E Accuracy: -m0
Conclusion: CDDA 85%
Signature: 2F398D15CDB2A53236265DF07505A18D7A63F7E8
FILE: 04. Part Four -- Journey To IX Land.flac
Size: 56185938 Hash: 600053F78F885BB20AB606CE03545EEB Accuracy: -m0
Conclusion: CDDA 100%
Signature: 396A2242872983164227C557CBE614496A8838C7
FILE: 03. Part Three -- Another Trip In The Forest.flac
Size: 61848699 Hash: F0473DC5C77490C489E496096EF1D9CE Accuracy: -m0
Conclusion: CDDA 76%
Signature: 72C0E48236C6E5A8C31E6F6FB308A7AB235C111A
FILE: 02. Part Two -- Gateway To The Sun.flac
Size: 72267703 Hash: 8B746583D574C1BEA2080F33275FDE1B Accuracy: -m0
Conclusion: CDDA 86%
Signature: 1C90F325C6B8D878169854A4C634121EF884E5CB
FILE: 01. Part One -- Nueroscopic Bubbling Pond Life.flac
Size: 72244786 Hash: 5F4D3CCCD1F1851E752CA87946F7A42C Accuracy: -m0
Conclusion: CDDA 100%
Signature: B10E4C6BEC8A689276242C15E111B314D28314AD

2008 Ixland (CD)

Год выпуска: 2008
Жанр: Psychill/Tribal/Ambient
Продолжительность: 00:54:13
Треклист:

01. Clouds Of Indigo (13:01)
02. Planet X (11:42)
03. Tree Bark Dreams (09:51)
04. Smiling Buddha (08:35)
05. Lhasa Oblongata (03:24)
06. Ixland / Clearlight (05:27)
07. Home (02:13)

EAC


Exact Audio Copy V1.3 from 2. September 2016

EAC extraction logfile from 7. July 2018, 16:59

Indigo Egg / Ixland

Used drive : HL-DT-STBD-RE WH16NS40 Adapter: 1 ID: 0

Read mode : Secure
Utilize accurate stream : Yes
Defeat audio cache : Yes
Make use of C2 pointers : No

Read offset correction : 6
Overread into Lead-In and Lead-Out : No
Fill up missing offset samples with silence : Yes
Delete leading and trailing silent blocks : No
Null samples used in CRC calculations : Yes
Used interface : Native Win32 interface for Win NT & 2000
Gap handling : Appended to previous track

Used output format : User Defined Encoder
Selected bitrate : 1024 kBit/s
Quality : High
Add ID3 tag : No
Command line compressor : C:\Program Files (x86)\Exact Audio Copy\Flac\flac.exe
Additional command line options : -8 -e -p -V -T "ARTIST=%artist%" -T "TITLE=%title%" -T "ALBUM=%albumtitle%" -T "DATE=%year%" -T "TRACKNUMBER=%tracknr%" -T "GENRE=%genre%" -T "PERFORMER=%albuminterpret%" -T "COMPOSER=%composer%" %haslyrics%--tag-from-file=LYRICS="%lyricsfile%"%haslyrics% -T "ALBUMARTIST=%albumartist%" -T "DISCNUMBER=%cdnumber%" -T "TOTALDISCS=%totalcds%" -T "TOTALTRACKS=%numtracks%" -T "COMMENT=%comment%" %source% -o %dest%

TOC of the extracted CD

Track | Start | Length | Start sector | End sector
---------------------------------------------------------
1 | 0:00.00 | 13:01.02 | 0 | 58576
2 | 13:01.02 | 11:41.57 | 58577 | 111208
3 | 24:42.59 | 9:51.11 | 111209 | 155544
4 | 34:33.70 | 8:34.57 | 155545 | 194151
5 | 43:08.52 | 3:23.40 | 194152 | 209416
6 | 46:32.17 | 5:27.22 | 209417 | 233963
7 | 51:59.39 | 2:12.70 | 233964 | 243933

Track 1

Filename J:\.RIPPED\Indigo Egg - Ixland (2008) [FLAC - CD]\01 - Clouds of Indigo.wav

Pre-gap length 0:00:02.00

Peak level 67.4 %
Extraction speed 5.3 X
Track quality 100.0 %
Test CRC 2559B395
Copy CRC 2559B395
Accurately ripped (confidence 6) [27D20433] (AR v1)
Copy OK

Track 2

Filename J:\.RIPPED\Indigo Egg - Ixland (2008) [FLAC - CD]\02 - Planet X.wav

Peak level 72.3 %
Extraction speed 6.6 X
Track quality 100.0 %
Test CRC EFFC20A9
Copy CRC EFFC20A9
Accurately ripped (confidence 6) [63BA3ED2] (AR v1)
Copy OK

Track 3

Filename J:\.RIPPED\Indigo Egg - Ixland (2008) [FLAC - CD]\03 - Tree Bark Dreams.wav

Peak level 65.8 %
Extraction speed 7.5 X
Track quality 100.0 %
Test CRC E114C196
Copy CRC E114C196
Accurately ripped (confidence 6) [72FF1F37] (AR v1)
Copy OK

Track 4

Filename J:\.RIPPED\Indigo Egg - Ixland (2008) [FLAC - CD]\04 - Smiling Buddha.wav

Peak level 70.7 %
Extraction speed 8.1 X
Track quality 100.0 %
Test CRC 21155894
Copy CRC 21155894
Accurately ripped (confidence 6) [8960AF59] (AR v1)
Copy OK

Track 5

Filename J:\.RIPPED\Indigo Egg - Ixland (2008) [FLAC - CD]\05 - Lhasa Oblongata.wav

Peak level 39.1 %
Extraction speed 6.2 X
Track quality 99.9 %
Test CRC 37D155DE
Copy CRC 37D155DE
Accurately ripped (confidence 6) [9C4E78C1] (AR v1)
Copy OK

Track 6

Filename J:\.RIPPED\Indigo Egg - Ixland (2008) [FLAC - CD]\06 - Ixland , Clearlight.wav

Peak level 79.4 %
Extraction speed 8.4 X
Track quality 100.0 %
Test CRC F4C4CF4B
Copy CRC F4C4CF4B
Accurately ripped (confidence 6) [7980E0AD] (AR v1)
Copy OK

Track 7

Filename J:\.RIPPED\Indigo Egg - Ixland (2008) [FLAC - CD]\07 - Home.wav

Peak level 29.9 %
Extraction speed 7.5 X
Track quality 100.0 %
Test CRC E028F90A
Copy CRC E028F90A
Accurately ripped (confidence 6) [C2C0A0CF] (AR v1)
Copy OK

All tracks accurately ripped

No errors occurred

End of status report

---- CUETools DB Plugin V2.1.6

[CTDB TOCID: BqZ5dt8QTcMEriMAyjOrPnYtABw-] found
Submit result: BqZ5dt8QTcMEriMAyjOrPnYtABw- has been confirmed
Track | CTDB Status
1 | (5/5) Accurately ripped
2 | (5/5) Accurately ripped
3 | (5/5) Accurately ripped
4 | (5/5) Accurately ripped
5 | (5/5) Accurately ripped
6 | (5/5) Accurately ripped
7 | (5/5) Accurately ripped

==== Log checksum D22CED442C35572C26E2DA919A118885E308D5918D3D4DEE918339EA055B66AD ====

CUE


REM GENRE Ambient
REM DATE 2008
REM DISCID 600CB407
REM COMMENT "ExactAudioCopy v1.3"
PERFORMER "Indigo Egg"
TITLE "Ixland"
REM COMPOSER ""
FILE "01 - Clouds of Indigo.wav" WAVE
TRACK 01 AUDIO
TITLE "Clouds of Indigo"
PERFORMER "Indigo Egg"
REM COMPOSER ""
INDEX 01 00:00:00
FILE "02 - Planet X.wav" WAVE
TRACK 02 AUDIO
TITLE "Planet X"
PERFORMER "Indigo Egg"
REM COMPOSER ""
INDEX 01 00:00:00
FILE "03 - Tree Bark Dreams.wav" WAVE
TRACK 03 AUDIO
TITLE "Tree Bark Dreams"
PERFORMER "Indigo Egg"
REM COMPOSER ""
INDEX 01 00:00:00
FILE "04 - Smiling Buddha.wav" WAVE
TRACK 04 AUDIO
TITLE "Smiling Buddha"
PERFORMER "Indigo Egg"
REM COMPOSER ""
INDEX 01 00:00:00
FILE "05 - Lhasa Oblongata.wav" WAVE
TRACK 05 AUDIO
TITLE "Lhasa Oblongata"
PERFORMER "Indigo Egg"
REM COMPOSER ""
INDEX 01 00:00:00
FILE "06 - Ixland , Clearlight.wav" WAVE
TRACK 06 AUDIO
TITLE "Ixland / Clearlight"
PERFORMER "Indigo Egg"
REM COMPOSER ""
INDEX 01 00:00:00
FILE "07 - Home.wav" WAVE
TRACK 07 AUDIO
TITLE "Home"
PERFORMER "Indigo Egg"
REM COMPOSER ""
INDEX 01 00:00:00

2013 Ixland (WEB)

Год выпуска: 2013
Жанр: Psychill/Tribal/Ambient
Продолжительность: 00:54:20
Треклист:

01. Clouds Of Indigo (13:06)
02. Planet X (11:14)
03. Tree Bark Dreams (10:15)
04. Smiling Buddha (08:04)
05. Lhasa Oblongata (04:07)
06. Ixland (03:26)
07. Clearlight (01:40)
08. Home (02:28)

Лог проверки качества


-----------------------

DON'T MODIFY THIS FILE

-----------------------

PERFORMER: auCDtect Task Manager, ver. 1.6.0 RC1 build 1.6.0.1
Copyright (c) 2008-2010 y-soft. All rights reserved
http://y-soft.org

ANALYZER: auCDtect: CD records authenticity detector, version 0.8.2
Copyright (c) 2004 Oleg Berngardt. All rights reserved.
Copyright (c) 2004 Alexander Djourik. All rights reserved.

FILE: 08. Home.flac
Size: 11137298 Hash: F9BAA06E25C0CD9855DFD801A3294999 Accuracy: -m0
Conclusion: CDDA 100%
Signature: 16F40C77D9030653DD6A41BB603BD4EFD9772E17
FILE: 07. Clearlight.flac
Size: 9496403 Hash: 33F87773E9509E86EE9D7D9504F4F5CF Accuracy: -m0
Conclusion: CDDA 100%
Signature: 6EF3141B0E93E1A5F7B302D5152FDD9749DBD7B3
FILE: 06. Ixland.flac
Size: 19363857 Hash: 20700D5AA3EFC1D8B6AD90F2AF249703 Accuracy: -m0
Conclusion: CDDA 99%
Signature: C0D8B57FFF6C561F5BDB0AFA79C42A7210AE1639
FILE: 05. Lhasa Oblongata.flac
Size: 21484077 Hash: 5D096B3752240A085B4DE1944F088FA7 Accuracy: -m0
Conclusion: CDDA 99%
Signature: 166084E76FE5B5F52E79C948C84E89B4438AA01C
FILE: 04. Smiling Buddha.flac
Size: 45444028 Hash: 29BFA768C2B5F42B26E74EC24168C670 Accuracy: -m0
Conclusion: CDDA 100%
Signature: AC69F22B86CB9A0B72CC81A4E88838D773885059
FILE: 03. Tree Bark Dreams.flac
Size: 59453681 Hash: 28C0BEE2BAF0279BF0CA3213D4A29F14 Accuracy: -m0
Conclusion: CDDA 99%
Signature: 0135AF1203FD381A226BFAAD06CA366226489329
FILE: 02. Planet X.flac
Size: 62519331 Hash: 73732AB6373B2A17BAD6AACC68FFEB1B Accuracy: -m0
Conclusion: CDDA 62%
Signature: 92EF5F455679412949ABC278E54D5C3A0A1E8850
FILE: 01. Clouds Of Indigo.flac
Size: 78626472 Hash: 445E51A38C1CFE99E85D6862C27F00DB Accuracy: -m0
Conclusion: CDDA 99%
Signature: 35CD9FD1672025316E8AF6CC83CA2E0F14677C21

2015 Microcosmacrocosm (Alien Mutation vs Indigo Egg) (CD)

Год выпуска: 2015
Жанр: Dub/Ambient/Tribal/Trance/Psychill
Продолжительность: 01:06:36+01:06:34
Треклист:

CD1
01. Nueroscopic Bubbling Pond Life (11:12)
02. Gateway To The Sun (11:49)
03. Another Trip In The Forest (12:05)
04. Journey To Ix Land (09:59)
05. Cloudhopping (08:22)
06. Sea Of Tranquilty (13:09)

CD2
01. Gateway To The Sun (Extended Mix) (15:59)
02. Lost In The Forest (18:57)
03. Dreaming Trees (07:49)
04. Harmonic Skys (23:49)

EAC


Exact Audio Copy V1.0 beta 4 from 7. December 2014

EAC extraction logfile from 26. June 2015, 18:24

Alien Mutation vs Indigo Egg / Microcosmacrocosm (Disc 1)

Used drive : ASUS SDRW-08D2S-U Adapter: 1 ID: 0

Read mode : Secure
Utilize accurate stream : Yes
Defeat audio cache : Yes
Make use of C2 pointers : No

Read offset correction : 6
Overread into Lead-In and Lead-Out : No
Fill up missing offset samples with silence : Yes
Delete leading and trailing silent blocks : No
Null samples used in CRC calculations : Yes
Used interface : Native Win32 interface for Win NT & 2000
Gap handling : Appended to previous track

Used output format : User Defined Encoder
Selected bitrate : 1024 kBit/s
Quality : High
Add ID3 tag : No
Command line compressor : C:\Program Files (x86)\Exact Audio Copy\Flac\flac.exe
Additional command line options : -8 -V -T "ARTIST=%artist%" -T "TITLE=%title%" -T "ALBUM=%albumtitle%" -T "DATE=%year%" -T "TRACKNUMBER=%tracknr%" -T "GENRE=%genre%" -T "PERFORMER=%albuminterpret%" -T "COMPOSER=%composer%" %haslyrics%--tag-from-file=LYRICS="%lyricsfile%"%haslyrics% -T "ALBUMARTIST=%albumartist%" -T "DISCNUMBER=%cdnumber%" -T "TOTALDISCS=%totalcds%" -T "TOTALTRACKS=%numtracks%" -T "COMMENT=%comment%" %source% -o %dest%

TOC of the extracted CD

Track | Start | Length | Start sector | End sector
---------------------------------------------------------
1 | 0:00.00 | 11:11.51 | 0 | 50375
2 | 11:11.51 | 11:49.00 | 50376 | 103550
3 | 23:00.51 | 12:04.74 | 103551 | 157924
4 | 35:05.50 | 9:58.45 | 157925 | 202819
5 | 45:04.20 | 8:21.53 | 202820 | 240447
6 | 53:25.73 | 13:09.19 | 240448 | 299641

Track 1

Filename H:\Alien Mutation Vs Indigo Egg - Microcosmacrocosm (2015) [FLAC - CD]\Disc 1\01 - Nueroscopic Bubbling Pond Life.wav

Pre-gap length 0:00:02.00

Peak level 73.4 %
Extraction speed 2.9 X
Track quality 100.0 %
Test CRC 5F6582E5
Copy CRC 5F6582E5
Track not present in AccurateRip database
Copy OK

Track 2

Filename H:\Alien Mutation Vs Indigo Egg - Microcosmacrocosm (2015) [FLAC - CD]\Disc 1\02 - Gateway To The Sun.wav

Peak level 86.6 %
Extraction speed 3.6 X
Track quality 100.0 %
Test CRC C121C1EB
Copy CRC C121C1EB
Track not present in AccurateRip database
Copy OK

Track 3

Filename H:\Alien Mutation Vs Indigo Egg - Microcosmacrocosm (2015) [FLAC - CD]\Disc 1\03 - Another Trip In The Forest.wav

Peak level 88.1 %
Extraction speed 4.1 X
Track quality 100.0 %
Test CRC AC1C8BC5
Copy CRC AC1C8BC5
Track not present in AccurateRip database
Copy OK

Track 4

Filename H:\Alien Mutation Vs Indigo Egg - Microcosmacrocosm (2015) [FLAC - CD]\Disc 1\04 - Journey To Ix Land.wav

Peak level 83.3 %
Extraction speed 4.0 X
Track quality 99.9 %
Test CRC A069B36A
Copy CRC A069B36A
Track not present in AccurateRip database
Copy OK

Track 5

Filename H:\Alien Mutation Vs Indigo Egg - Microcosmacrocosm (2015) [FLAC - CD]\Disc 1\05 - Cloudhopping.wav

Peak level 75.1 %
Extraction speed 4.5 X
Track quality 100.0 %
Test CRC C38BC819
Copy CRC C38BC819
Track not present in AccurateRip database
Copy OK

Track 6

Filename H:\Alien Mutation Vs Indigo Egg - Microcosmacrocosm (2015) [FLAC - CD]\Disc 1\06 - Sea Of Tranquilty.wav

Peak level 68.7 %
Extraction speed 5.0 X
Track quality 100.0 %
Test CRC 916F2894
Copy CRC 916F2894
Track not present in AccurateRip database
Copy OK

None of the tracks are present in the AccurateRip database

No errors occurred

End of status report

---- CUETools DB Plugin V2.1.4

[CTDB TOCID: BJGnj0iLgv4TFmItVWhURRBcg_Q-] found
Submit result: BJGnj0iLgv4TFmItVWhURRBcg_Q- has been confirmed
Track | CTDB Status
1 | (3/3) Accurately ripped
2 | (3/3) Accurately ripped
3 | (3/3) Accurately ripped
4 | (3/3) Accurately ripped
5 | (3/3) Accurately ripped
6 | (3/3) Accurately ripped

==== Log checksum 1FF25AF9B635D54914A1780BC9F939FFE1CDEFF97CBD9A44F3220F548A5CBE3C ====
---------------------------------------------------------------------------------------------------------------------------------------------------------

Exact Audio Copy V1.0 beta 4 from 7. December 2014

EAC extraction logfile from 26. June 2015, 19:10

Alien Mutation vs Indigo Egg / Microcosmacrocosm (Disc 2)

Used drive : ASUS SDRW-08D2S-U Adapter: 1 ID: 0

Read mode : Secure
Utilize accurate stream : Yes
Defeat audio cache : Yes
Make use of C2 pointers : No

Read offset correction : 6
Overread into Lead-In and Lead-Out : No
Fill up missing offset samples with silence : Yes
Delete leading and trailing silent blocks : No
Null samples used in CRC calculations : Yes
Used interface : Native Win32 interface for Win NT & 2000
Gap handling : Appended to previous track

Used output format : User Defined Encoder
Selected bitrate : 1024 kBit/s
Quality : High
Add ID3 tag : No
Command line compressor : C:\Program Files (x86)\Exact Audio Copy\Flac\flac.exe
Additional command line options : -8 -V -T "ARTIST=%artist%" -T "TITLE=%title%" -T "ALBUM=%albumtitle%" -T "DATE=%year%" -T "TRACKNUMBER=%tracknr%" -T "GENRE=%genre%" -T "PERFORMER=%albuminterpret%" -T "COMPOSER=%composer%" %haslyrics%--tag-from-file=LYRICS="%lyricsfile%"%haslyrics% -T "ALBUMARTIST=%albumartist%" -T "DISCNUMBER=%cdnumber%" -T "TOTALDISCS=%totalcds%" -T "TOTALTRACKS=%numtracks%" -T "COMMENT=%comment%" %source% -o %dest%

TOC of the extracted CD

Track | Start | Length | Start sector | End sector
---------------------------------------------------------
1 | 0:00.00 | 15:59.26 | 0 | 71950
2 | 15:59.26 | 18:56.57 | 71951 | 157207
3 | 34:56.08 | 7:48.40 | 157208 | 192347
4 | 42:44.48 | 23:49.31 | 192348 | 299553

Track 1

Filename H:\Alien Mutation Vs Indigo Egg - Microcosmacrocosm (2015) [FLAC - CD]\Disc 2\01 - Gateway To The Sun (Extended Mix).wav

Pre-gap length 0:00:02.00

Peak level 60.1 %
Extraction speed 3.1 X
Track quality 100.0 %
Test CRC 1EFEAD1D
Copy CRC 1EFEAD1D
Track not present in AccurateRip database
Copy OK

Track 2

Filename H:\Alien Mutation Vs Indigo Egg - Microcosmacrocosm (2015) [FLAC - CD]\Disc 2\02 - Lost In The Forest.wav

Peak level 61.6 %
Extraction speed 3.8 X
Track quality 99.9 %
Test CRC EED049C2
Copy CRC EED049C2
Track not present in AccurateRip database
Copy OK

Track 3

Filename H:\Alien Mutation Vs Indigo Egg - Microcosmacrocosm (2015) [FLAC - CD]\Disc 2\03 - Dreaming Trees.wav

Peak level 46.8 %
Extraction speed 4.4 X
Track quality 100.0 %
Test CRC 751CE0FF
Copy CRC 751CE0FF
Track not present in AccurateRip database
Copy OK

Track 4

Filename H:\Alien Mutation Vs Indigo Egg - Microcosmacrocosm (2015) [FLAC - CD]\Disc 2\04 - Harmonic Skys.wav

Peak level 33.7 %
Extraction speed 5.1 X
Track quality 100.0 %
Test CRC 96FE7D9A
Copy CRC 96FE7D9A
Track not present in AccurateRip database
Copy OK

None of the tracks are present in the AccurateRip database

No errors occurred

End of status report

---- CUETools DB Plugin V2.1.4

[CTDB TOCID: lU8WXQifrv.VGnlusmDOzvaoN8Q-] found
Submit result: lU8WXQifrv.VGnlusmDOzvaoN8Q- has been confirmed
Track | CTDB Status
1 | (3/3) Accurately ripped
2 | (3/3) Accurately ripped
3 | (3/3) Accurately ripped
4 | (3/3) Accurately ripped

==== Log checksum D9677BC19ACD13D70FC7AD8FFC13DA8BFF640F66C8F1F3D5B54B63098E4F3A30 ====

CUE


REM GENRE Ambient
REM DATE 2015
REM DISCID 450F9B06
REM COMMENT "ExactAudioCopy v1.0b4"
PERFORMER "Alien Mutation vs Indigo Egg"
TITLE "Microcosmacrocosm (Disc 1)"
FILE "01 - Nueroscopic Bubbling Pond Life.wav" WAVE
TRACK 01 AUDIO
TITLE "Nueroscopic Bubbling Pond Life"
PERFORMER "Alien Mutation vs Indigo Egg"
INDEX 01 00:00:00
FILE "02 - Gateway To The Sun.wav" WAVE
TRACK 02 AUDIO
TITLE "Gateway To The Sun"
PERFORMER "Alien Mutation vs Indigo Egg"
INDEX 01 00:00:00
FILE "03 - Another Trip In The Forest.wav" WAVE
TRACK 03 AUDIO
TITLE "Another Trip In The Forest"
PERFORMER "Alien Mutation vs Indigo Egg"
INDEX 01 00:00:00
FILE "04 - Journey To Ix Land.wav" WAVE
TRACK 04 AUDIO
TITLE "Journey To Ix Land"
PERFORMER "Alien Mutation vs Indigo Egg"
INDEX 01 00:00:00
FILE "05 - Cloudhopping.wav" WAVE
TRACK 05 AUDIO
TITLE "Cloudhopping"
PERFORMER "Alien Mutation vs Indigo Egg"
INDEX 01 00:00:00
FILE "06 - Sea Of Tranquilty.wav" WAVE
TRACK 06 AUDIO
TITLE "Sea Of Tranquilty"
PERFORMER "Alien Mutation vs Indigo Egg"
INDEX 01 00:00:00
---------------------------------------------------------------

REM GENRE Ambient
REM DATE 2015
REM DISCID 380F9A04
REM COMMENT "ExactAudioCopy v1.0b4"
PERFORMER "Alien Mutation vs Indigo Egg"
TITLE "Microcosmacrocosm (Disc 2)"
FILE "01 - Gateway To The Sun (Extended Mix).wav" WAVE
TRACK 01 AUDIO
TITLE "Gateway To The Sun (Extended Mix)"
PERFORMER "Alien Mutation vs Indigo Egg"
INDEX 01 00:00:00
FILE "02 - Lost In The Forest.wav" WAVE
TRACK 02 AUDIO
TITLE "Lost In The Forest"
PERFORMER "Alien Mutation vs Indigo Egg"
INDEX 01 00:00:00
FILE "03 - Dreaming Trees.wav" WAVE
TRACK 03 AUDIO
TITLE "Dreaming Trees"
PERFORMER "Alien Mutation vs Indigo Egg"
INDEX 01 00:00:00
FILE "04 - Harmonic Skys.wav" WAVE
TRACK 04 AUDIO
TITLE "Harmonic Skys"
PERFORMER "Alien Mutation vs Indigo Egg"
INDEX 01 00:00:00

2018 Aten (WEB)

Год выпуска: 2018
Жанр: Ambient/Abstract
Продолжительность: 01:07:00
Треклист:

01. Aten (15:09)
02. Blue Lily (06:46)
03. Eqyptroniq (04:49)
04. The Eye (09:01)
05. Pleasure Gardens (05:02)
06. Cairo queens (07:36)
07. Before All Time (14:38)
08. Amun-Re (03:59)

Лог проверки качества


-----------------------

DON'T MODIFY THIS FILE

-----------------------

PERFORMER: auCDtect Task Manager, ver. 1.6.0 RC1 build 1.6.0.1
Copyright (c) 2008-2010 y-soft. All rights reserved
http://y-soft.org

ANALYZER: auCDtect: CD records authenticity detector, version 0.8.2
Copyright (c) 2004 Oleg Berngardt. All rights reserved.
Copyright (c) 2004 Alexander Djourik. All rights reserved.

FILE: 08. Amun-Re.flac
Size: 18480690 Hash: 4377AD7775A02B5D0199A231441AA899 Accuracy: -m0
Conclusion: CDDA 100%
Signature: 966EE7963D3189AD288661F2F014FE5D9693458E
FILE: 07. Before All Time.flac
Size: 75178486 Hash: 5704D65B532BB41622C1EC9C45F8B42C Accuracy: -m0
Conclusion: CDDA 62%
Signature: E14E40B55AB2C421BC7E344B837120362814746C
FILE: 06. Cairo queens.flac
Size: 32957609 Hash: 3FE66231FBA4CFC74A2C37DFBE7AB18E Accuracy: -m0
Conclusion: CDDA 49%
Signature: 6DB24F7B1D3C983C32271AB19CABFD69BA2254BA
FILE: 05. Pleasure Gardens.flac
Size: 24544383 Hash: E71327DBBABB18971E4944B0085D856D Accuracy: -m0
Conclusion: CDDA 92%
Signature: 0EB9B7CDCED0E14C3115456B8BB676E606312608
FILE: 04. The Eye.flac
Size: 54134847 Hash: 05C6E10E8177F8A03478FDF635726B64 Accuracy: -m0
Conclusion: CDDA 99%
Signature: CEA5E5670805FA3CBFC73532689BE726A85EFBD1
FILE: 03. Eqyptroniq.flac
Size: 24305569 Hash: C59E8A0787BA3939FA8D5AD543C3E45A Accuracy: -m0
Conclusion: CDDA 100%
Signature: FC691796608E3E9CE088359B0BDA4704D1A0F3EB
FILE: 02. Blue Lily.flac
Size: 31715704 Hash: 48B762198E2F8132FA241799C6F7F942 Accuracy: -m0
Conclusion: CDDA 76%
Signature: 23A239686168AE38518695AB40E336FBB30C514A
FILE: 01. Aten.flac
Size: 82569812 Hash: AE9F2DE9163964A8967DCEB033997FE1 Accuracy: -m0
Conclusion: CDDA 99%
Signature: 8D8EA40663CFF939F2FF15EC97ECBF9C4A6F4942

Discogs

Детали торрента:
Название:Indigo Egg - Discography 5 Releases (1996-2018) ...txt [FLAC|Lossless|WEB-DL|tracks+.cue, tracks] <Ambient, Dub, Abstract, Tribal, Psychill, Downtempo>
Дата добавления:07 Ноя 2018 23:53:50
Размер:1,99 GB
Раздают:3
Качают:1
Форум:Easy listening (Lossless)

All rights reserved © 2015-2019