TORRENTS45.XYZ

Скачать VA - Chilled, The After-Hours Sessions (2002) Carbon Recordings [FLAC|Lossless|tracks+.cue] <Downtempo, lounge, Trip Hop, House>


Chilled, The After-Hours Sessions
Жанр: Downtempo, lounge, Trip Hop, House
Издание: Carbon Recordings - CMCHILLEDCD1
Продолжительность: 01:15:07

Кодек: FLAC
Битрейт: Lossless
Тип рипа: tracks+.cue

Треклист:

01. Kelli Ali - Sunlight In The Rain (04:39)
02. Kinobe - Having A Moment (03:39)
03. Airlock - Awakening (04:10)
04. Morcheeba - On The Rhodes Again (05:23)
05. A Man Called Adam - The Longest Day (07:22)
06. Jose Padilla - Adios Ayers (05:32)
07. Laurent Garnier - The Man With The Red Face (08:15)
08. I Am Kloot - Because (05:21)
09. Röyksopp - Sparks (05:22)
10. Space Raiders - Laying It Down (Midfield General Mix) (05:16)
11. Groove Armada - Healing (05:54)
12. Smoke City - Underwater Love (06:47)
13. Emiliana Torrini - Summerbreeze (03:38)
14. Sneaker Pimps - Underground (03:49)

Отчёт EAC:


Exact Audio Copy V1.3 from 2. September 2016

EAC extraction logfile from 19. May 2017, 11:45

Various Artists / Chilled. The After-Hours Sessions

Used drive : ATAPI iHAS124 F Adapter: 1 ID: 0

Read mode : Secure
Utilize accurate stream : Yes
Defeat audio cache : Yes
Make use of C2 pointers : No

Read offset correction : 6
Overread into Lead-In and Lead-Out : No
Fill up missing offset samples with silence : Yes
Delete leading and trailing silent blocks : No
Null samples used in CRC calculations : Yes
Used interface : Native Win32 interface for Win NT & 2000
Gap handling : Appended to previous track

Used output format : User Defined Encoder
Selected bitrate : 1024 kBit/s
Quality : High
Add ID3 tag : No
Command line compressor : C:\Program Files (x86)\flac-1.3.1-win\win64\flac.exe
Additional command line options : -8 -e -p -V -T "ARTIST=%artist%" -T "TITLE=%title%" -T "ALBUM=%albumtitle%" -T "DATE=%year%" -T "TRACKNUMBER=%tracknr%" -T "GENRE=%genre%" -T "PERFORMER=%albuminterpret%" -T "COMPOSER=%composer%" %haslyrics%--tag-from-file=LYRICS="%lyricsfile%"%haslyrics% -T "ALBUMARTIST=%albumartist%" -T "DISCNUMBER=%cdnumber%" -T "TOTALDISCS=%totalcds%" -T "TOTALTRACKS=%numtracks%" -T "COMMENT=%comment%" %source% -o %dest%

TOC of the extracted CD

Track | Start | Length | Start sector | End sector
---------------------------------------------------------
1 | 0:00.00 | 4:39.10 | 0 | 20934
2 | 4:39.10 | 3:39.00 | 20935 | 37359
3 | 8:18.10 | 4:10.35 | 37360 | 56144
4 | 12:28.45 | 5:23.29 | 56145 | 80398
5 | 17:51.74 | 7:22.02 | 80399 | 113550
6 | 25:14.01 | 5:31.62 | 113551 | 138437
7 | 30:45.63 | 8:14.60 | 138438 | 175547
8 | 39:00.48 | 5:20.61 | 175548 | 199608
9 | 44:21.34 | 5:21.61 | 199609 | 223744
10 | 49:43.20 | 5:16.33 | 223745 | 247477
11 | 54:59.53 | 5:53.53 | 247478 | 274005
12 | 60:53.31 | 6:47.02 | 274006 | 304532
13 | 67:40.33 | 3:37.64 | 304533 | 320871
14 | 71:18.22 | 3:49.11 | 320872 | 338057

Track 1

Filename Z:\EAC\VA - Chilled, The After-Hours Sessions (2002) [flac]\01. Kelli Ali - Sunlight in the Rain.wav

Pre-gap length 0:00:02.00

Peak level 99.9 %
Extraction speed 5.7 X
Track quality 100.0 %
Test CRC 7F1B8388
Copy CRC 7F1B8388
Accurately ripped (confidence 9) [95739050] (AR v2)
Copy OK

Track 2

Filename Z:\EAC\VA - Chilled, The After-Hours Sessions (2002) [flac]\02. Kinobe - Having a Moment.wav

Pre-gap length 0:00:01.22

Peak level 64.5 %
Extraction speed 5.8 X
Track quality 100.0 %
Test CRC 8E342DF5
Copy CRC 8E342DF5
Accurately ripped (confidence 9) [72E06FC1] (AR v2)
Copy OK

Track 3

Filename Z:\EAC\VA - Chilled, The After-Hours Sessions (2002) [flac]\03. Airlock - Awakening.wav

Pre-gap length 0:00:01.26

Peak level 100.0 %
Extraction speed 6.5 X
Track quality 100.0 %
Test CRC C72E2FE9
Copy CRC C72E2FE9
Accurately ripped (confidence 9) [7300073E] (AR v2)
Copy OK

Track 4

Filename Z:\EAC\VA - Chilled, The After-Hours Sessions (2002) [flac]\04. Morcheeba - On the Rhodes Again.wav

Pre-gap length 0:00:01.10

Peak level 97.9 %
Extraction speed 6.1 X
Track quality 99.9 %
Test CRC 1DE0B13D
Copy CRC 1DE0B13D
Accurately ripped (confidence 9) [3FB07C9B] (AR v2)
Copy OK

Track 5

Filename Z:\EAC\VA - Chilled, The After-Hours Sessions (2002) [flac]\05. A Man Called Adam - The Longest Day.wav

Pre-gap length 0:00:01.05

Peak level 85.5 %
Extraction speed 7.9 X
Track quality 100.0 %
Test CRC F5BC8F3E
Copy CRC F5BC8F3E
Accurately ripped (confidence 9) [175DB1CC] (AR v2)
Copy OK

Track 6

Filename Z:\EAC\VA - Chilled, The After-Hours Sessions (2002) [flac]\06. José Padilla - Adios Ayers.wav

Pre-gap length 0:00:01.20

Peak level 99.9 %
Extraction speed 8.4 X
Track quality 100.0 %
Test CRC 15096668
Copy CRC 15096668
Accurately ripped (confidence 9) [1B9DEC5C] (AR v2)
Copy OK

Track 7

Filename Z:\EAC\VA - Chilled, The After-Hours Sessions (2002) [flac]\07. Laurent Garnier - The Man with the Red Face.wav

Pre-gap length 0:00:01.18

Peak level 100.0 %
Extraction speed 9.1 X
Track quality 100.0 %
Test CRC 05E2DABD
Copy CRC 05E2DABD
Accurately ripped (confidence 9) [E3B3430A] (AR v2)
Copy OK

Track 8

Filename Z:\EAC\VA - Chilled, The After-Hours Sessions (2002) [flac]\08. I Am Kloot - Because.wav

Pre-gap length 0:00:01.42

Peak level 100.0 %
Extraction speed 9.2 X
Track quality 100.0 %
Test CRC 8D0BBB9E
Copy CRC 8D0BBB9E
Accurately ripped (confidence 9) [EA60B175] (AR v2)
Copy OK

Track 9

Filename Z:\EAC\VA - Chilled, The After-Hours Sessions (2002) [flac]\09. Röyksopp - Sparks.wav

Pre-gap length 0:00:01.16

Peak level 97.2 %
Extraction speed 9.6 X
Track quality 100.0 %
Test CRC 59AAD685
Copy CRC 59AAD685
Accurately ripped (confidence 8) [305C5829] (AR v2)
Copy OK

Track 10

Filename Z:\EAC\VA - Chilled, The After-Hours Sessions (2002) [flac]\10. Space Raiders - Laying it Down (Midfield General Mix).wav

Pre-gap length 0:00:00.96

Peak level 99.9 %
Extraction speed 10.0 X
Track quality 100.0 %
Test CRC 37DE3F1F
Copy CRC 37DE3F1F
Accurately ripped (confidence 9) [CB0876D2] (AR v2)
Copy OK

Track 11

Filename Z:\EAC\VA - Chilled, The After-Hours Sessions (2002) [flac]\11. Groove Armada - Healing.wav

Pre-gap length 0:00:01.00

Peak level 97.5 %
Extraction speed 10.4 X
Track quality 100.0 %
Test CRC EBBB67F4
Copy CRC EBBB67F4
Accurately ripped (confidence 8) [B70C7FFB] (AR v2)
Copy OK

Track 12

Filename Z:\EAC\VA - Chilled, The After-Hours Sessions (2002) [flac]\12. Smoke City - Underwater Love.wav

Pre-gap length 0:00:01.13

Peak level 86.2 %
Extraction speed 8.7 X
Track quality 99.9 %
Test CRC B415C657
Copy CRC B415C657
Accurately ripped (confidence 8) [39429DCA] (AR v2)
Copy OK

Track 13

Filename Z:\EAC\VA - Chilled, The After-Hours Sessions (2002) [flac]\13. Emilíana Torrini - Summerbreeze.wav

Pre-gap length 0:00:00.98

Peak level 99.9 %
Extraction speed 8.8 X
Track quality 100.0 %
Test CRC E6289E18
Copy CRC E6289E18
Accurately ripped (confidence 8) [C908AD80] (AR v2)
Copy OK

Track 14

Filename Z:\EAC\VA - Chilled, The After-Hours Sessions (2002) [flac]\14. Sneaker Pimps - 6 Underground.wav

Pre-gap length 0:00:01.00

Peak level 99.9 %
Extraction speed 8.1 X
Track quality 100.0 %
Test CRC 0FA382FC
Copy CRC 0FA382FC
Accurately ripped (confidence 8) [19DCC30E] (AR v2)
Copy OK

All tracks accurately ripped

No errors occurred

End of status report

---- CUETools DB Plugin V2.1.6

[CTDB TOCID: EvBbBHrgOfgeaX17BOjcwemANL4-] found
Submit result: EvBbBHrgOfgeaX17BOjcwemANL4- has been confirmed
Track | CTDB Status
1 | (17/17) Accurately ripped
2 | (17/17) Accurately ripped
3 | (17/17) Accurately ripped
4 | (17/17) Accurately ripped
5 | (17/17) Accurately ripped
6 | (17/17) Accurately ripped
7 | (17/17) Accurately ripped
8 | (17/17) Accurately ripped
9 | (17/17) Accurately ripped
10 | (17/17) Accurately ripped
11 | (17/17) Accurately ripped
12 | (17/17) Accurately ripped
13 | (17/17) Accurately ripped
14 | (17/17) Accurately ripped

==== Log checksum F30A8D23DF1B0827F75E715F3570206D72018286CB7D136B6F101B02C55D87A8 ====

Cue Sheet (.cue):


REM GENRE Chilled
REM DATE 2002
REM DISCID B2119B0E
REM COMMENT "ExactAudioCopy v1.3"
PERFORMER "Various Artists"
TITLE "Chilled. The After-Hours Sessions"
REM COMPOSER ""
FILE "01. Kelli Ali - Sunlight in the Rain.wav" WAVE
TRACK 01 AUDIO
TITLE "Sunlight in the Rain"
PERFORMER "Kelli Ali"
REM COMPOSER ""
FLAGS DCP
INDEX 01 00:00:00
TRACK 02 AUDIO
TITLE "Having a Moment"
PERFORMER "Kinobe"
REM COMPOSER ""
FLAGS DCP
INDEX 00 04:37:68
FILE "02. Kinobe - Having a Moment.wav" WAVE
INDEX 01 00:00:00
TRACK 03 AUDIO
TITLE "Awakening"
PERFORMER "Airlock"
REM COMPOSER ""
FLAGS DCP
INDEX 00 03:37:55
FILE "03. Airlock - Awakening.wav" WAVE
INDEX 01 00:00:00
TRACK 04 AUDIO
TITLE "On the Rhodes Again"
PERFORMER "Morcheeba"
REM COMPOSER ""
FLAGS DCP
INDEX 00 04:09:27
FILE "04. Morcheeba - On the Rhodes Again.wav" WAVE
INDEX 01 00:00:00
TRACK 05 AUDIO
TITLE "The Longest Day"
PERFORMER "A Man Called Adam"
REM COMPOSER ""
FLAGS DCP
INDEX 00 05:22:25
FILE "05. A Man Called Adam - The Longest Day.wav" WAVE
INDEX 01 00:00:00
TRACK 06 AUDIO
TITLE "Adios Ayers"
PERFORMER "Josй Padilla"
REM COMPOSER ""
FLAGS DCP
INDEX 00 07:20:62
FILE "06. Josй Padilla - Adios Ayers.wav" WAVE
INDEX 01 00:00:00
TRACK 07 AUDIO
TITLE "The Man with the Red Face"
PERFORMER "Laurent Garnier"
REM COMPOSER ""
FLAGS DCP
INDEX 00 05:30:48
FILE "07. Laurent Garnier - The Man with the Red Face.wav" WAVE
INDEX 01 00:00:00
TRACK 08 AUDIO
TITLE "Because"
PERFORMER "I Am Kloot"
REM COMPOSER ""
FLAGS DCP
INDEX 00 08:13:28
FILE "08. I Am Kloot - Because.wav" WAVE
INDEX 01 00:00:00
TRACK 09 AUDIO
TITLE "Sparks"
PERFORMER "Rцyksopp"
REM COMPOSER ""
FLAGS DCP
INDEX 00 05:19:49
FILE "09. Rцyksopp - Sparks.wav" WAVE
INDEX 01 00:00:00
TRACK 10 AUDIO
TITLE "Laying it Down (Midfield General Mix)"
PERFORMER "Space Raiders"
REM COMPOSER ""
FLAGS DCP
INDEX 00 05:20:64
FILE "10. Space Raiders - Laying it Down (Midfield General Mix).wav" WAVE
INDEX 01 00:00:00
TRACK 11 AUDIO
TITLE "Healing"
PERFORMER "Groove Armada"
REM COMPOSER ""
FLAGS DCP
INDEX 00 05:15:33
FILE "11. Groove Armada - Healing.wav" WAVE
INDEX 01 00:00:00
TRACK 12 AUDIO
TITLE "Underwater Love"
PERFORMER "Smoke City"
REM COMPOSER ""
FLAGS DCP
INDEX 00 05:52:43
FILE "12. Smoke City - Underwater Love.wav" WAVE
INDEX 01 00:00:00
TRACK 13 AUDIO
TITLE "Summerbreeze"
PERFORMER "Emilнana Torrini"
REM COMPOSER ""
FLAGS DCP
INDEX 00 06:46:03
FILE "13. Emilнana Torrini - Summerbreeze.wav" WAVE
INDEX 01 00:00:00
TRACK 14 AUDIO
TITLE "6 Underground"
PERFORMER "Sneaker Pimps"
REM COMPOSER ""
FLAGS DCP
INDEX 00 03:36:64
FILE "14. Sneaker Pimps - 6 Underground.wav" WAVE
INDEX 01 00:00:00

Discogs

Детали торрента:
Название:VA - Chilled, The After-Hours Sessions (2002) Carbon Recordings [FLAC|Lossless|tracks+.cue] <Downtempo, lounge, Trip Hop, House>
Дата добавления:03 Ноя 2018 16:20:23
Размер:443 MB
Раздают:5
Качают:0
Форум:Easy listening (Lossless)

All rights reserved © 2015-2019