TORRENTS45.XYZ

Скачать Счастливы вместе / Happy Together (2018) WEB-DL [H.264/1080p-LQ] (сезон 1, серии 1-12 из 13) TVShows (обновляемая)


Счастливы вместе / Happy Together
Производство: США
Жанр: комедия

Режиссер: Фил Льюис, Энди Экерман, Марк Сендроуски
Актеры: Дэймон Уайанс мл., Эмбер Стивенс, Стефни Уир, Виктор Уильямс, Крис Парнелл, Уинстон Джеймс Френсис, Андерс Холм, Бетси Содаро и др.

Описание:
Питер и Клэр, уставшая от обыденности пара чуть за тридцать, вспоминают свою юность, когда в их дом в пригороде переезжает восходящая поп-звезда.


Дата мировой премьеры: 01.10.2018

Продолжительность: ~00:30:00 серия
Качество видео: WEB-DL 1080p
Перевод: Многоголосый закадровый, любительский (TVShows)
Субтитры: английские

Видео: AVC/H.264, 1920x1080 (16:9), ~7525 Kbps
Аудио 1: AC3, 6 ch, 384 kbps - русский, многоголосый закадровый
Аудио 2: E-AC3, 6 ch, 640 kbps - английский

Mediainfo:


Общее
Уникальный идентификатор : 115505469186312520938563867149253535993 (0x56E58B4FAF46DAA9B8FD814CDD2CE8F9)
Полное имя : E:\Happy.Together.S01.1080p.TVShows\Happy.Together.S01E01.1080p.TVShows.mkv
Формат : Matroska
Версия формата : Version 4
Размер файла : 1,30 Гбайт
Продолжительность : 21 м. 47 с.
Общий поток : 8552 Кбит/сек
Дата кодирования : UTC 2018-10-23 11:26:00
Программа кодирования : mkvmerge v24.0.0 ('Beyond The Pale') 64-bit
Библиотека кодирования : libebml v1.3.6 + libmatroska v1.4.9

Видео
Идентификатор : 1
Формат : AVC
Формат/Информация : Advanced Video Codec
Профиль формата : High@L4
Настройки формата : CABAC / 4 Ref Frames
Параметр CABAC формата : Да
Параметр RefFrames формата : 4 кадра
Идентификатор кодека : V_MPEG4/ISO/AVC
Продолжительность : 21 м. 47 с.
Битрейт : 7525 Кбит/сек
Ширина : 1920 пикселей
Высота : 1080 пикселей
Соотношение сторон : 16:9
Режим частоты кадров : Постоянный
Частота кадров : 23,976 (24000/1001) кадра/сек
Цветовое пространство : YUV
Субдискретизация насыщенности : 4:2:0
Битовая глубина : 8 бит
Тип развёртки : Прогрессивная
Бит/(Пиксели*Кадры) : 0.151
Размер потока : 1,15 Гбайт (88%)
Default : Да
Forced : Нет
Цветовой диапазон : Limited
Основные цвета : BT.709
Характеристики трансфера : BT.709
Коэффициенты матрицы : BT.709

Аудио #1
Идентификатор : 2
Формат : AC-3
Формат/Информация : Audio Coding 3
Коммерческое название : Dolby Digital
Идентификатор кодека : A_AC3
Продолжительность : 21 м. 47 с.
Вид битрейта : Постоянный
Битрейт : 384 Кбит/сек
Каналы : 6 каналов
Channel layout : L R C LFE Ls Rs
Частота : 48,0 КГц
Частота кадров : 31,250 кадров/сек (1536 SPF)
Битовая глубина : 16 бит
Метод сжатия : С потерями
Размер потока : 59,9 Мбайт (4%)
Заголовок : TVShows
Язык : Russian
ServiceKind/String : Complete Main
Default : Да
Forced : Нет

Аудио #2
Идентификатор : 3
Формат : E-AC-3
Формат/Информация : Enhanced AC-3
Коммерческое название : Dolby Digital Plus
Идентификатор кодека : A_EAC3
Продолжительность : 21 м. 47 с.
Вид битрейта : Постоянный
Битрейт : 640 Кбит/сек
Каналы : 6 каналов
Channel layout : L R C LFE Ls Rs
Частота : 48,0 КГц
Частота кадров : 31,250 кадров/сек (1536 SPF)
Метод сжатия : С потерями
Размер потока : 99,8 Мбайт (7%)
Заголовок : Original
Язык : English
ServiceKind/String : Complete Main
Default : Нет
Forced : Нет

Текст
Идентификатор : 4
Формат : UTF-8
Идентификатор кодека : S_TEXT/UTF8
Идентификатор кодека/Информация : UTF-8 Plain Text
Продолжительность : 21 м. 26 с.
Битрейт : 103 бит/сек
ElementCount : 500
Размер потока : 16,2 Кбайт (0%)
Заголовок : English
Язык : English
Default : Нет
Forced : Нет

Внимание! Раздача ведётся путём добавления новых серий

Внимание! Раздача ведётся путём добавления новых серий; при каждом добавлении создаётся новый торрент.
Чтобы начать докачку новой серии, пользователям необходимо сделать следующее:
1. Остановить скачивание;
2. Удалить старый торрент у себя из клиента (старые серии удалять не надо);
3. Скачать новый торрент и запустить его у себя в клиенте вместо старого, при этом указать клиенту путь в старую папку куда и должно происходить скачивание новых серий. Ваш клиент при этом должен произвести хеширование (проверку) старой папки и будет докачивать только те серии, которых у вас ещё нет. Старые серии при этом не удаляются, а продолжают раздаваться! Eсли вы уже удалили старые серии, то предотвратить повторную закачку старых серий можно, сняв галочку в соответствующих местах при запуске нового торрента.
Скриншоты:


Все одноименные релизы в Клубе

Смотреть Online

Детали торрента:
Название:Счастливы вместе / Happy Together (2018) WEB-DL [H.264/1080p-LQ] (сезон 1, серии 1-12 из 13) TVShows (обновляемая)
Дата добавления:15 Янв 2019 23:39:14
Размер:13,2 GB
Раздают:2
Качают:2
Форум:Зарубежные сериалы

All rights reserved © 2015-2019