TORRENTS45.XYZ

Скачать Гордость и предубеждение и зомби / Pride and Prejudice and Zombies (2016) BDRip [H.264/1080p-LQ]


Гордость и предубеждение и зомби / Pride and Prejudice and Zombies (2016) BDRip [H.264/1080p-LQ]
Производство: США, Великобритания / Cross Creek Pictures, MadRiver Pictures, QC Entertainment
Жанр: Ужасы, Боевик, Мелодрама

Режиссер: Бёрр Стирс
Актеры: Лили Джеймс, Сэм Райли, Белла Хиткот, Элли Бамбер, Милли Брэйди, Сьюки Уотерхаус, Дуглас Бут, Сэлли Филлипс, Чарльз Дэнс, Джек Хьюстон

Описание:
Англия, XIX век. Элизабет Беннет вместе с четырьмя сестрами обучается боевым искусствам, чтобы противостоять зомби, терроризирующим всю страну. Их наставником становится надменный Дарси, к которому героиня питает глубокую неприязнь.


Возраст: 16+ (зрителям, достигшим 16 лет)
Рейтинг MPAA: PG-13 (детям до 13 лет просмотр нежелателен)

Релиз от: SanLex

Продолжительность: 01:47:32
Качество видео: BDRip
Перевод: Дублированный
Субтитры: Русские, английские

Видео: AVC/H.264, 1920x800, ~4921 kbps
Аудио #01: AC3, 6 ch, 448 Kbps - Русский
Аудио #02: AC3, 6 ch, 448 Kbps - Английский

Mediainfo:


General
Unique ID : 214574300723793182041166522839109484058 (0xA16D81D1B2BCD05BA9E9477FD5E03E1A)
Complete name : Гордость и предубеждение и зомби - Pride and Prejudice and Zombies (2016) BDRip 1080p.mkv
Format : Matroska
Format version : Version 4
File size : 4.37 GiB
Duration : 1 h 47 min
Overall bit rate : 5 818 kb/s
Encoded date : UTC 2018-11-02 09:18:10
Writing application : mkvmerge v8.2.0 ('World of Adventure') 64bit
Writing library : libebml v1.3.1 + libmatroska v1.4.2

Video
ID : 1
Format : AVC
Format/Info : Advanced Video Codec
Format profile : High@L4.1
Format settings : CABAC / 4 Ref Frames
Format settings, CABAC : Yes
Format settings, RefFrames : 4 frames
Codec ID : V_MPEG4/ISO/AVC
Duration : 1 h 47 min
Bit rate : 4 921 kb/s
Width : 1 920 pixels
Height : 800 pixels
Display aspect ratio : 2.40:1
Frame rate mode : Constant
Frame rate : 23.976 (24000/1001) FPS
Color space : YUV
Chroma subsampling : 4:2:0
Bit depth : 8 bits
Scan type : Progressive
Bits/(Pixel*Frame) : 0.134
Stream size : 3.70 GiB (85%)
Title : Гордость и предубеждение и зомби / Pride and Prejudice and Zombies (2016)
Writing library : x264 core 152 r2851 ba24899
Encoding settings : cabac=1 / ref=4 / deblock=1:-1:-1 / analyse=0x3:0x133 / me=umh / subme=11 / psy=1 / psy_rd=1.00:0.10 / mixed_ref=1 / me_range=32 / chroma_me=1 / trellis=2 / 8x8dct=1 / cqm=0 / deadzone=21,11 / fast_pskip=0 / chroma_qp_offset=-3 / threads=6 / lookahead_threads=1 / sliced_threads=0 / nr=0 / decimate=1 / interlaced=0 / bluray_compat=0 / constrained_intra=0 / bframes=8 / b_pyramid=2 / b_adapt=2 / b_bias=0 / direct=3 / weightb=1 / open_gop=0 / weightp=2 / keyint=250 / keyint_min=23 / scenecut=40 / intra_refresh=0 / rc=2pass / mbtree=0 / bitrate=4921 / ratetol=1.0 / qcomp=0.60 / qpmin=0 / qpmax=69 / qpstep=4 / cplxblur=20.0 / qblur=0.5 / ip_ratio=1.40 / pb_ratio=1.30 / aq=1:1.00
Language : English
Default : Yes
Forced : No

Audio #1
ID : 2
Format : AC-3
Format/Info : Audio Coding 3
Commercial name : Dolby Digital
Codec ID : A_AC3
Duration : 1 h 47 min
Bit rate mode : Constant
Bit rate : 448 kb/s
Channel(s) : 6 channels
Channel layout : L R C LFE Ls Rs
Sampling rate : 48.0 kHz
Frame rate : 31.250 FPS (1536 SPF)
Bit depth : 16 bits
Compression mode : Lossy
Stream size : 345 MiB (8%)
Language : Russian
Service kind : Complete Main
Default : Yes
Forced : No

Audio #2
ID : 3
Format : AC-3
Format/Info : Audio Coding 3
Commercial name : Dolby Digital
Codec ID : A_AC3
Duration : 1 h 47 min
Bit rate mode : Constant
Bit rate : 448 kb/s
Channel(s) : 6 channels
Channel layout : L R C LFE Ls Rs
Sampling rate : 48.0 kHz
Frame rate : 31.250 FPS (1536 SPF)
Bit depth : 16 bits
Compression mode : Lossy
Stream size : 345 MiB (8%)
Language : English
Service kind : Complete Main
Default : No
Forced : No

Text #1
ID : 4
Format : UTF-8
Codec ID : S_TEXT/UTF8
Codec ID/Info : UTF-8 Plain Text
Duration : 1 h 46 min
Bit rate : 101 b/s
Count of elements : 1291
Stream size : 78.9 KiB (0%)
Language : Russian
Default : No
Forced : No

Text #2
ID : 5
Format : UTF-8
Codec ID : S_TEXT/UTF8
Codec ID/Info : UTF-8 Plain Text
Duration : 1 h 46 min
Bit rate : 58 b/s
Count of elements : 1302
Stream size : 46.0 KiB (0%)
Language : English
Default : No
Forced : No

Menu
00:00:00.000 : :00:00:00.000
00:06:41.318 : :00:06:41.318
00:11:50.251 : :00:11:50.251
00:17:59.996 : :00:17:59.996
00:24:06.445 : :00:24:06.445
00:31:53.036 : :00:31:53.036
00:37:43.595 : :00:37:43.595
00:44:22.243 : :00:44:22.243
00:52:06.623 : :00:52:06.623
00:59:28.607 : :00:59:28.607
01:05:45.233 : :01:05:45.233
01:11:16.981 : :01:11:16.981
01:18:40.674 : :01:18:40.674
01:25:03.348 : :01:25:03.348
01:30:18.163 : :01:30:18.163
01:35:49.744 : :01:35:49.744

Лог кодирования


x264 [info]: frame I:1165 Avg QP:13.81 size:164164
x264 [info]: frame P:38776 Avg QP:15.13 size: 53242
x264 [info]: frame B:114762 Avg QP:16.88 size: 15176
Скриншоты:


Все одноименные релизы в Клубе

Смотреть Online


Детали торрента:
Название:Гордость и предубеждение и зомби / Pride and Prejudice and Zombies (2016) BDRip [H.264/1080p-LQ]
Дата добавления:02 Ноя 2018 13:44:58
Размер:4,37 GB
Раздают:5
Качают:0
Форум:Зарубежные Фильмы (HD*Rip/LQ, DVDRip, SATRip, VHSRip)

All rights reserved © 2015-2019