TORRENTS45.XYZ

Скачать Последний рейд (Пропавшая) / The Missing (2003) BDRip [H.264/1080p-LQ]


Последний рейд (Пропавшая) / The Missing (2003) BDRip [H.264/1080p-LQ]«How far would you go, how much would you sacrifice to get back what you have lost?»
Производство: США / Columbia Pictures, TriStar Pictures
Жанр: Триллер, Приключения, Вестерн

Режиссер: Рон Ховард
Продюсер: Брайан Грейзер, Рон Ховард, Дэниэл Острофф
Актеры: Томми Ли Джонс, Кейт Бланшетт, Ивэн Рэйчел Вуд, Дженна Бойд, Аарон Экхарт, Вэл Килмер, Серджо Кальдерон

Описание:
Дикий Запад, 1886 год. Старый Сэм, много лет назад бросивший свою семью и ушедший жить к индейцам племени апачей, возвращается в родной дом, в надежде помириться с дочерью Мэгги Гилксон.
И хотя в сердце Мэгги все еще жива горькая обида, она вынуждена обратиться к отцу за помощью. Ведь только этот странный и ставший давно чужим человек способен спасти ее старшую дочь Лили, похищенную безжалостным психопатом Чайдином…


Возраст: 16+ (зрителям, достигшим 16 лет)
Рейтинг MPAA: R (лицам до 17 лет обязательно присутствие взрослого)
Дата выхода DVD релиза: 3 июня 2004, «Columbia/Sony»

Релиз от: R.G. Goldenshara

Продолжительность: 02:16:57
Качество видео: BDRip (1080p-LQ)
Перевод: Многоголосый закадровый (Видеосервис)
Субтитры: Русские (full), Английские (full+SDH)

Видео: AVC/H.264, 1920x1080 (16:9), ~4122 kbps, 23.976 fps
Аудио: AC3, 6 ch, 48.0 KHz, 448 kbps

Mediainfo:


General
Unique ID : 187750693949514699325226477511471312593 (0x8D3F77E6287F9887BD7AD373AFB0AED1)
Complete name : E:\Мои рипы\Последний рейд.2003.BDRip.1080p.MVO.mkv
Format : Matroska
Format version : Version 4 / Version 2
File size : 4.37 GiB
Duration : 2h 16mn
Overall bit rate : 4 570 Kbps
Movie name : The Missing (2003)
Encoded date : UTC 2018-10-30 08:17:29
Writing application : mkvmerge v6.8.0 ('Theme for Great Cities') 32bit built on Mar 2 2014 21:27:07
Writing library : libebml v1.3.0 + libmatroska v1.4.1
Attachment : poster

Video
ID : 1
Format : AVC
Format/Info : Advanced Video Codec
Format profile : High@L4.1
Format settings, CABAC : Yes
Format settings, ReFrames : 4 frames
Codec ID : V_MPEG4/ISO/AVC
Duration : 2h 16mn
Bit rate : 4 122 Kbps
Width : 1 920 pixels
Height : 1 080 pixels
Display aspect ratio : 16:9
Frame rate mode : Constant
Frame rate : 23.976 fps
Color space : YUV
Chroma subsampling : 4:2:0
Bit depth : 8 bits
Scan type : Progressive
Bits/(Pixel*Frame) : 0.083
Stream size : 3.86 GiB (88%)
Writing library : x264 core 130 r2273 b3065e6
Encoding settings : cabac=1 / ref=4 / deblock=1:-3:-3 / analyse=0x3:0x113 / me=umh / subme=11 / psy=1 / psy_rd=1.00:0.15 / mixed_ref=1 / me_range=48 / chroma_me=1 / trellis=2 / 8x8dct=1 / cqm=0 / deadzone=21,11 / fast_pskip=0 / chroma_qp_offset=-4 / threads=6 / lookahead_threads=1 / sliced_threads=0 / nr=0 / decimate=0 / interlaced=0 / bluray_compat=0 / constrained_intra=0 / bframes=8 / b_pyramid=2 / b_adapt=2 / b_bias=0 / direct=2 / weightb=1 / open_gop=0 / weightp=2 / keyint=250 / keyint_min=23 / scenecut=40 / intra_refresh=0 / rc=2pass / mbtree=0 / bitrate=4122 / ratetol=1.0 / qcomp=0.60 / qpmin=0 / qpmax=69 / qpstep=4 / cplxblur=20.0 / qblur=0.5 / ip_ratio=1.40 / pb_ratio=1.30 / aq=2:1.00
Language : English
Default : Yes
Forced : No
Color primaries : Generic film
Matrix coefficients : YCgCo

Audio
ID : 2
Format : AC-3
Format/Info : Audio Coding 3
Mode extension : CM (complete main)
Format settings, Endianness : Big
Codec ID : A_AC3
Duration : 2h 16mn
Bit rate mode : Constant
Bit rate : 448 Kbps
Channel(s) : 6 channels
Channel positions : Front: L C R, Side: L R, LFE
Sampling rate : 48.0 KHz
Bit depth : 16 bits
Compression mode : Lossy
Delay relative to video : 28ms
Stream size : 439 MiB (10%)
Title : Профессиональный многоголосый (ВидеоСервис)
Language : Russian
Default : Yes
Forced : No

Text #1
ID : 3
Format : UTF-8
Codec ID : S_TEXT/UTF8
Codec ID/Info : UTF-8 Plain Text
Title : RUS_full
Language : Russian
Default : No
Forced : No

Text #2
ID : 4
Format : UTF-8
Codec ID : S_TEXT/UTF8
Codec ID/Info : UTF-8 Plain Text
Title : ENG_full
Language : English
Default : No
Forced : No

Text #3
ID : 5
Format : UTF-8
Codec ID : S_TEXT/UTF8
Codec ID/Info : UTF-8 Plain Text
Title : ENG_SDH
Language : English
Default : No
Forced : No

Menu
00:00:00.000 : en:Chapter 1
00:12:26.913 : en:Chapter 2
00:29:55.210 : en:Chapter 3
00:44:04.600 : en:Chapter 4
00:57:59.059 : en:Chapter 5
01:12:07.949 : en:Chapter 6
01:31:33.363 : en:Chapter 7
01:52:17.773 : en:Chapter 8
02:10:00.710 : en:Chapter 9

Знаете ли Вы, что...

Вэл Килмер, владеющий ранчо неподалёку от места съёмок и периодически живущий там, согласился на небольшую роль в фильме в рамках своего участия в инвестиционной программе развития кино штата Нью-Мексико.
Для аутентичности своих персонажей Томми Ли Джонс и Эрик Швейг потратили многие часы на овладение несколькими фразами на практически вымершем в настоящее время языке апачей. Их старания были очень высоко оценены немногочисленными последними носителями этого языка и культуры.
Съёмки картины проходили с 10 февраля по июнь 2003 года в американском штате Нью-Мексико.
Скриншоты:


Все одноименные релизы в Клубе

Смотреть Online


Детали торрента:
Название:Последний рейд (Пропавшая) / The Missing (2003) BDRip [H.264/1080p-LQ]
Дата добавления:30 Окт 2018 19:35:40
Размер:4,37 GB
Раздают:3
Качают:0
Форум:Зарубежные Фильмы (HD*Rip/LQ, DVDRip, SATRip, VHSRip)

All rights reserved © 2015-2019