TORRENTS45.XYZ

Скачать На колёсах / Tour de Pharmacy (2017) DVB [H.264/1080i-LQ]


На колёсах / Tour de Pharmacy (2017) DVB [H.264/1080i]

Производство: США / HBO Films,Legends of Sport,Murray Miller Entertainment
Жанр: Комедия

Режиссер: Джейк Зиманский
Продюсер: М. Элизабет Хьюз, Дэвид Бернад, Этан Кашинг
Актеры: Энди Сэмберг, Давид Диггс, Джон Сина, Орландо Блум, Фредди Хаймор, Джеймс Марсден, Джефф Голдблюм, Дэнни Гловер, Дольф Лундгрен, Джулия Ормонд

Описание:
«История» гонки «Тур де Франс» 1982 года, в которой чуть ли не каждый спортсмен попался на допинге. Герои эпической многодневки соревновались скорее в собственной аморальности — и тут у каждого свой личный рекорд. Что на самом деле происходило во время самого мрачного и противоречивого события в истории спорта, «рассказывается» на примере пяти главных его участников.


Возраст: этот продукт не был классифицирован
Рейтинг MPAA: этот продукт не был классифицирован
Дата мировой премьеры: 8 июля 2017
Дата российской премьеры: 9 июля 2017

Продолжительность: 00:39:13
Качество видео: DVB [1080i]

Перевод: Многоголосый закадровый, профессиональный (AMedia)
Субтитры: Русские

Видео: AVC/H.264, 1920x1080, ~3585 kb/s
Аудио #1: MP2, 2 ch, 192 kbps | русский, многоголосый закадровый
Аудио #2: MP2, 2 ch, 160 kbps | английский
Аудио #3: АС3, 6 ch, 384 kbps | русский, многоголосый закадровый

Mediainfo:


General
ID : 16 (0x10)
Complete name : Tour de Pharmacy_2017_HD.ts
Format : MPEG-TS
File size : 1.25 GiB
Duration : 39 min 13 s
Overall bit rate mode : Variable
Overall bit rate : 4 553 kb/s

Video
ID : 1812 (0x714)
Menu ID : 812 (0x32C)
Format : AVC
Format/Info : Advanced Video Codec
Format profile : High@L4
Format settings : CABAC / 4 Ref Frames
Format settings, CABAC : Yes
Format settings, RefFrames : 4 frames
Format settings, GOP : M=4, N=24
Codec ID : 27
Duration : 39 min 13 s
Bit rate : 3 585 kb/s
Width : 1 920 pixels
Height : 1 080 pixels
Display aspect ratio : 16:9
Frame rate : 25.000 FPS
Standard : PAL
Color space : YUV
Chroma subsampling : 4:2:0
Bit depth : 8 bits
Scan type : Interlaced
Scan type, store method : Separated fields
Scan order : Top Field First
Bits/(Pixel*Frame) : 0.069
Stream size : 1 006 MiB (79%)
Color range : Limited
Color primaries : BT.709
Transfer characteristics : BT.709
Matrix coefficients : BT.709

Audio #1
ID : 2812 (0xAFC)
Menu ID : 812 (0x32C)
Format : MPEG Audio
Format version : Version 1
Format profile : Layer 2
Codec ID : 4
Duration : 39 min 13 s
Bit rate mode : Constant
Bit rate : 192 kb/s
Channel(s) : 2 channels
Sampling rate : 48.0 kHz
Frame rate : 41.667 FPS (1152 SPF)
Compression mode : Lossy
Delay relative to video : 8 ms
Stream size : 53.9 MiB (4%)
Language : std
Language, more info : Clean effects

Audio #2
ID : 3812 (0xEE4)
Menu ID : 812 (0x32C)
Format : MPEG Audio
Format version : Version 1
Format profile : Layer 2
Codec ID : 4
Duration : 39 min 13 s
Bit rate mode : Constant
Bit rate : 160 kb/s
Channel(s) : 2 channels
Sampling rate : 48.0 kHz
Frame rate : 41.667 FPS (1152 SPF)
Compression mode : Lossy
Delay relative to video : 8 ms
Stream size : 44.9 MiB (4%)
Language : English
Language, more info : Clean effects

Audio #3
ID : 3862 (0xF16)
Menu ID : 812 (0x32C)
Format : AC-3
Format/Info : Audio Coding 3
Commercial name : Dolby Digital
Codec ID : 6
Duration : 39 min 13 s
Bit rate mode : Constant
Bit rate : 384 kb/s
Channel(s) : 6 channels
Channel layout : L R C LFE Ls Rs
Sampling rate : 48.0 kHz
Frame rate : 31.250 FPS (1536 SPF)
Bit depth : 16 bits
Compression mode : Lossy
Delay relative to video : 40 ms
Stream size : 108 MiB (8%)
Language : std
Language, more info : Clean effects
Service kind : Complete Main
Скриншоты:


Все одноименные релизы в Клубе

Детали торрента:
Название:На колёсах / Tour de Pharmacy (2017) DVB [H.264/1080i-LQ]
Дата добавления:30 Окт 2018 08:52:01
Размер:1,25 GB
Раздают:8
Качают:0
Форум:Зарубежные Фильмы (HD*Rip/LQ, DVDRip, SATRip, VHSRip)

All rights reserved © 2015-2019