TORRENTS45.XYZ

Скачать Хардкор / Hardcore Henry (2015) BDRip [H.264/1080p-LQ]


Хардкор / Hardcore Henry (2015) BDRip [H.264/1080p-LQ]
Производство: Россия, США / Bazelevs Production, Versus Pictures, Huayi Brothers Media
Жанр: Боевик, Фантастика

Режиссер: Илья Найшуллер
Актеры: Шарлто Копли, Хейли Беннетт, Данила Козловский, Андрей Дементьев, Сергей Шнуров, Кирилл Серебренников, Александр Паль, Светлана Устинова, Даша Чаруша, Равшана Куркова

Описание:
Фильм рассказывает о мужчине по имени Генри, который, придя в себя, обнаруживает, что он находится в военно-научной лаборатории, занимающейся производством людей-киборгов. Его возвращает к жизни девушка Эстель. В прошлом Эстель была женой Генри. Не успев понять, что же с ним произошло, Генри сталкивается с злодеем Аканом, который похищает девушку. На помощь Генри приходит некий Джимми, желающий поквитаться с Аканом. Добраться до Акана и спасти девушку героям будет не так просто, поскольку у Акана есть своя армия киборгов…


Возраст: 18+ (зрителям, достигшим 18 лет. запрещено для детей)
Рейтинг MPAA: R (лицам до 17 лет обязательно присутствие взрослого)

Релиз от: SanLex

Продолжительность: 01:36:46
Качество видео: BDRip
Перевод: Дублированный (iTunes)
Субтитры: Русские, английские

Видео: AVC/H.264, 1920x1032, ~5 635 kb/s
Аудио #01: AC3, 6 ch, 384 Kbps - Русский
Аудио #02: AC3, 6 ch, 448 Kbps - Английский

Mediainfo:


General
Unique ID : 224938027402042674355893627466453515394 (0xA9397CFEA3DB623AB24E8280EE6A7C82)
Complete name : Хардкор - Hardcore Henry (2015) BDRip 1080p.mkv
Format : Matroska
Format version : Version 4
File size : 4.37 GiB
Duration : 1 h 36 min
Overall bit rate : 6 463 kb/s
Encoded date : UTC 2018-10-24 04:14:56
Writing application : mkvmerge v8.2.0 ('World of Adventure') 64bit
Writing library : libebml v1.3.1 + libmatroska v1.4.2

Video
ID : 1
Format : AVC
Format/Info : Advanced Video Codec
Format profile : High@L4.1
Format settings : CABAC / 4 Ref Frames
Format settings, CABAC : Yes
Format settings, RefFrames : 4 frames
Codec ID : V_MPEG4/ISO/AVC
Duration : 1 h 36 min
Bit rate : 5 635 kb/s
Width : 1 920 pixels
Height : 1 032 pixels
Display aspect ratio : 1.85:1
Frame rate mode : Constant
Frame rate : 23.976 (24000/1001) FPS
Color space : YUV
Chroma subsampling : 4:2:0
Bit depth : 8 bits
Scan type : Progressive
Bits/(Pixel*Frame) : 0.119
Stream size : 3.80 GiB (87%)
Title : Хардкор / Hardcore Henry (2015)
Writing library : x264 core 152 r2851 ba24899
Encoding settings : cabac=1 / ref=4 / deblock=1:-1:-1 / analyse=0x3:0x133 / me=umh / subme=11 / psy=1 / psy_rd=1.00:0.10 / mixed_ref=1 / me_range=32 / chroma_me=1 / trellis=2 / 8x8dct=1 / cqm=0 / deadzone=21,11 / fast_pskip=0 / chroma_qp_offset=-3 / threads=6 / lookahead_threads=1 / sliced_threads=0 / nr=0 / decimate=1 / interlaced=0 / bluray_compat=0 / constrained_intra=0 / bframes=8 / b_pyramid=2 / b_adapt=2 / b_bias=0 / direct=3 / weightb=1 / open_gop=0 / weightp=2 / keyint=250 / keyint_min=23 / scenecut=40 / intra_refresh=0 / rc=2pass / mbtree=0 / bitrate=5635 / ratetol=1.0 / qcomp=0.60 / qpmin=0 / qpmax=69 / qpstep=4 / cplxblur=20.0 / qblur=0.5 / ip_ratio=1.40 / pb_ratio=1.30 / aq=1:1.00
Language : English
Default : Yes
Forced : No

Audio #1
ID : 2
Format : AC-3
Format/Info : Audio Coding 3
Commercial name : Dolby Digital
Codec ID : A_AC3
Duration : 1 h 36 min
Bit rate mode : Constant
Bit rate : 384 kb/s
Channel(s) : 6 channels
Channel layout : L R C LFE Ls Rs
Sampling rate : 48.0 kHz
Frame rate : 31.250 FPS (1536 SPF)
Bit depth : 16 bits
Compression mode : Lossy
Stream size : 266 MiB (6%)
Language : Russian
Service kind : Complete Main
Default : Yes
Forced : No

Audio #2
ID : 3
Format : AC-3
Format/Info : Audio Coding 3
Commercial name : Dolby Digital
Codec ID : A_AC3
Duration : 1 h 36 min
Bit rate mode : Constant
Bit rate : 448 kb/s
Channel(s) : 6 channels
Channel layout : L R C LFE Ls Rs
Sampling rate : 48.0 kHz
Frame rate : 31.250 FPS (1536 SPF)
Bit depth : 16 bits
Compression mode : Lossy
Stream size : 310 MiB (7%)
Language : English
Service kind : Complete Main
Default : No
Forced : No

Text #1
ID : 4
Format : UTF-8
Codec ID : S_TEXT/UTF8
Codec ID/Info : UTF-8 Plain Text
Duration : 1 h 32 min
Bit rate : 51 b/s
Count of elements : 785
Stream size : 34.6 KiB (0%)
Language : Russian
Default : No
Forced : No

Text #2
ID : 5
Format : UTF-8
Codec ID : S_TEXT/UTF8
Codec ID/Info : UTF-8 Plain Text
Duration : 1 h 32 min
Bit rate : 28 b/s
Count of elements : 680
Stream size : 19.1 KiB (0%)
Language : English
Default : No
Forced : No

Menu
00:00:00.000 : :Chapter 1
00:15:35.935 : :Chapter 2
00:26:08.650 : :Chapter 3
00:41:50.382 : :Chapter 4
00:55:31.619 : :Chapter 5
01:05:59.205 : :Chapter 6
01:17:07.414 : :Chapter 7
01:29:27.487 : :Chapter 8
01:36:38.417 : :Chapter 9

Лог кодирования


x264 [info]: frame I:615 Avg QP:17.16 size: 105596
x264 [info]: frame P:51650 Avg QP:19.83 size: 47617
x264 [info]: frame B:86939 Avg QP:20.82 size: 17643
Скриншоты:


Все одноименные релизы в Клубе

Смотреть Online


Детали торрента:
Название:Хардкор / Hardcore Henry (2015) BDRip [H.264/1080p-LQ]
Дата добавления:24 Окт 2018 08:52:16
Размер:4,37 GB
Раздают:23
Качают:0
Форум:Зарубежные Фильмы (HD*Rip/LQ, DVDRip, SATRip, VHSRip)

All rights reserved © 2015-2019