TORRENTS45.XYZ

Скачать Мамма MIA! / Mamma Mia! (2008) BDRip [H.265/1080p] [10-bit]


Мамма MIA! / Mamma Mia! (2008) BDRip
Производство: США, Великобритания, Германия
Жанр: Мюзикл, Мелодрама, Комедия

Режиссер: Филлида Ллойд
Актеры: Аманда Сайфред, Мэрил Стрип, Пирс Броснан, Стеллан Скарсгард, Колин Фёрт

Описание:
Молодая девушка Софи собирается выйти замуж и мечтает о том, чтобы церемония прошла по всем правилам. Она хочет пригласить на свадьбу своего отца, чтобы он отвел ее к алтарю. Но она не знает, кто он, так как ее мать Донна никогда не рассказывала о нем.


Возраст: 16+ (зрителям, достигшим 16 лет)
Рейтинг MPAA: PG-13 (детям до 13 лет просмотр нежелателен)

Релиз от: Kino-mix

Качество видео: BDRip
Перевод: Дублированный (Лицензия)
Субтитры: Русские (форсированные, полные), английские

Видео: HEVC/H.265, 1920x800, ~5009 Kbps
Аудио: AC3, 6 ch, 448 Kbps - Дублированный
Аудио: AC3, 6 ch, 448 Kbps - Английский

Mediainfo:


Общее
Уникальный идентификатор : 225428203295829286227502192080632351391 (0xA997E4883A8C8569F9EF579FF8870A9F)
Полное имя : F:\РАЗДАЧИ\Mamma Mia!. 2008. 1080p. HEVC. 10bit..mkv
Формат : Matroska
Версия формата : Version 4 / Version 2
Размер файла : 4,48 Гбайт
Продолжительность : 1 ч. 48 м.
Общий поток : 5907 Кбит/сек
Дата кодирования : UTC 2018-10-22 11:47:15
Программа кодирования : mkvmerge v21.0.0 ('Tardigrades Will Inherit The Earth') 64-bit
Библиотека кодирования : libebml v1.3.5 + libmatroska v1.4.8
Обложка : Yes
Attachments : cover1.jpg

Видео
Идентификатор : 1
Формат : HEVC
Формат/Информация : High Efficiency Video Coding
Профиль формата : Main 10@L4@Main
Идентификатор кодека : V_MPEGH/ISO/HEVC
Продолжительность : 1 ч. 48 м.
Битрейт : 5009 Кбит/сек
Ширина : 1920 пикселей
Высота : 800 пикселей
Соотношение сторон : 2,40:1
Режим частоты кадров : Постоянный
Частота кадров : 23,976 (24000/1001) кадра/сек
Цветовое пространство : YUV
Субдискретизация насыщенности : 4:2:0
Битовая глубина : 10 бит
Бит/(Пиксели*Кадры) : 0.136
Размер потока : 3,80 Гбайт (85%)
Библиотека кодирования : x265 2.9+1-169e76b6bbcc:[Windows][GCC 8.2.0][64 bit] 10bit
Настройки программы : cpuid=1111039 / frame-threads=3 / numa-pools=8 / wpp / no-pmode / no-pme / no-psnr / no-ssim / log-level=2 / input-csp=1 / input-res=1920x800 / interlace=0 / total-frames=156279 / level-idc=0 / high-tier=1 / uhd-bd=0 / ref=4 / no-allow-non-conformance / no-repeat-headers / annexb / no-aud / no-hrd / info / hash=0 / no-temporal-layers / open-gop / min-keyint=23 / keyint=250 / gop-lookahead=0 / bframes=8 / b-adapt=2 / b-pyramid / bframe-bias=0 / rc-lookahead=25 / lookahead-slices=4 / scenecut=40 / radl=0 / no-intra-refresh / ctu=64 / min-cu-size=8 / rect / no-amp / max-tu-size=32 / tu-inter-depth=1 / tu-intra-depth=1 / limit-tu=0 / rdoq-level=2 / dynamic-rd=0.00 / no-ssim-rd / signhide / no-tskip / nr-intra=0 / nr-inter=0 / no-constrained-intra / strong-intra-smoothing / max-merge=3 / limit-refs=3 / limit-modes / me=3 / subme=3 / merange=57 / temporal-mvp / weightp / no-weightb / no-analyze-src-pics / deblock=0:0 / sao / no-sao-non-deblock / rd=4 / no-early-skip / rskip / no-fast-intra / no-tskip-fast / no-cu-lossless / no-b-intra / no-splitrd-skip / rdpenalty=0 / psy-rd=2.00 / psy-rdoq=1.00 / no-rd-refine / no-lossless / cbqpoffs=0 / crqpoffs=0 / rc=abr / bitrate=5000 / qcomp=0.60 / qpstep=4 / stats-write=0 / stats-read=2 / cplxblur=20.0 / qblur=0.5 / ipratio=1.40 / pbratio=1.30 / aq-mode=3 / aq-strength=1.00 / cutree / zone-count=0 / no-strict-cbr / qg-size=32 / no-rc-grain / qpmax=69 / qpmin=0 / no-const-vbv / sar=0 / overscan=0 / videoformat=5 / range=0 / colorprim=2 / transfer=2 / colormatrix=2 / chromaloc=0 / display-window=0 / max-cll=0,0 / min-luma=0 / max-luma=1023 / log2-max-poc-lsb=8 / vui-timing-info / vui-hrd-info / slices=1 / no-opt-qp-pps / no-opt-ref-list-length-pps / multi-pass-opt-rps / scenecut-bias=0.05 / no-opt-cu-delta-qp / aq-motion / no-hdr / no-hdr-opt / no-dhdr10-opt / no-idr-recovery-sei / analysis-reuse-level=5 / scale-factor=0 / refine-intra=0 / refine-inter=0 / refine-mv=0 / no-limit-sao / ctu-info=0 / no-lowpass-dct / refine-mv-type=0 / copy-pic=1 / max-ausize-factor=1.0 / no-dynamic-refine / no-single-sei
Default : Да
Forced : Нет

Аудио #1
Идентификатор : 2
Формат : AC-3
Формат/Информация : Audio Coding 3
Идентификатор кодека : A_AC3
Продолжительность : 1 ч. 48 м.
Вид битрейта : Постоянный
Битрейт : 448 Кбит/сек
Каналы : 6 каналов
Расположение каналов : Front: L C R, Side: L R, LFE
Частота : 48,0 КГц
Частота кадров : 31,250 кадров/сек (1536 SPF)
Битовая глубина : 16 бит
Метод сжатия : С потерями
Размер потока : 348 Мбайт (8%)
Заголовок : Dub | DD 5.1 @ 448 kbps - Blu-ray EUR
Язык : Russian
ServiceKind/String : Complete Main
Default : Да
Forced : Нет

Аудио #2
Идентификатор : 3
Формат : AC-3
Формат/Информация : Audio Coding 3
Идентификатор кодека : A_AC3
Продолжительность : 1 ч. 48 м.
Вид битрейта : Постоянный
Битрейт : 448 Кбит/сек
Каналы : 6 каналов
Расположение каналов : Front: L C R, Side: L R, LFE
Частота : 48,0 КГц
Частота кадров : 31,250 кадров/сек (1536 SPF)
Битовая глубина : 16 бит
Метод сжатия : С потерями
Размер потока : 348 Мбайт (8%)
Заголовок : Original | DD 5.1 @ 448 kbps
Язык : English
ServiceKind/String : Complete Main
Default : Нет
Forced : Нет

Текст #1
Идентификатор : 4
Формат : UTF-8
Идентификатор кодека : S_TEXT/UTF8
Идентификатор кодека/Информация : UTF-8 Plain Text
Продолжительность : 1 ч. 47 м.
Битрейт : 40 бит/сек
ElementCount : 639
Размер потока : 31,6 Кбайт (0%)
Заголовок : Forced
Язык : Russian
Default : Да
Forced : Нет

Текст #2
Идентификатор : 5
Формат : UTF-8
Идентификатор кодека : S_TEXT/UTF8
Идентификатор кодека/Информация : UTF-8 Plain Text
Продолжительность : 1 ч. 40 м.
Битрейт : 110 бит/сек
ElementCount : 1618
Размер потока : 81,2 Кбайт (0%)
Заголовок : Blu-ray CEE
Язык : Russian
Default : Нет
Forced : Нет

Текст #3
Идентификатор : 6
Формат : UTF-8
Идентификатор кодека : S_TEXT/UTF8
Идентификатор кодека/Информация : UTF-8 Plain Text
Продолжительность : 1 ч. 42 м.
Битрейт : 63 бит/сек
ElementCount : 1539
Размер потока : 47,7 Кбайт (0%)
Заголовок : Full
Язык : English
Default : Нет
Forced : Нет

Меню
00:00:00.000 : en:Chapter 01
00:04:37.902 : en:Chapter 02
00:14:51.098 : en:Chapter 03
00:25:44.084 : en:Chapter 04
00:30:39.379 : en:Chapter 05
00:35:26.082 : en:Chapter 06
00:40:25.047 : en:Chapter 07
00:44:36.382 : en:Chapter 08
00:47:49.658 : en:Chapter 09
00:51:19.117 : en:Chapter 10
00:56:27.634 : en:Chapter 11
01:04:03.297 : en:Chapter 12
01:08:05.372 : en:Chapter 13
01:14:43.520 : en:Chapter 14
01:20:18.688 : en:Chapter 15
01:29:58.559 : en:Chapter 16
01:32:18.491 : en:Chapter 17
01:34:13.606 : en:Chapter 18
01:39:12.613 : en:Chapter 19
01:43:40.088 : en:Chapter 20

Внимание. H.265/HEVC

Доп. информация: -
H.265/HEVC (High Efficiency Video Coding) - это новый стандарт кодирования видео.
- Стандарт H.265/HEVC является логическим продолжением стандарта
H.264/AVC (Advanced Video Coding), и характеризуется более эффективными
алгоритмами сжатия, а также поддержкой высокого разрешения вплоть до 8K UHD
(8192x4320). Первая версия стандарта H.265 была опубликована в начале 2013 года.
- Рипы в фомате HEVC поддерживается не всеми аппаратными проигрывателями.
- Для корректного воспроизведения может потребоваться обновление ПО.
- Владельцам несовместимого железа просьба не беспокоить,
есть альтернативные релизы.
Скриншоты:


Все одноименные релизы в Клубе

Смотреть Online


Детали торрента:
Название:Мамма MIA! / Mamma Mia! (2008) BDRip [H.265/1080p] [10-bit]
Дата добавления:22 Окт 2018 17:21:57
Размер:4,48 GB
Раздают:7
Качают:0
Форум:Зарубежные Фильмы (HD*Rip/LQ, DVDRip, SATRip, VHSRip)

All rights reserved © 2015-2019