TORRENTS45.XYZ

Скачать Желтые цветы на зеленой траве / Tôi thay hoa vàng trên co xanh (Yellow Flowers on the Green Grass) (2015) HDTVRip [VO]


Желтые цветы на зеленой траве / Tôi thay hoa vàng trên co xanh (Yellow Flowers on the Green Grass) (2015) HDTVRip
Производство: Вьетнам / Galaxy Studio
Жанр: Драма

Режиссер: Виктор Ву
Актеры: Тхинь Винь, Чонг Кханг, Тхань Ми, Ми Ань, Ле Винь, Чыонг Ты Лиен, Нгуен Ань Ту, Май Чан, Бинь Ле

Описание:
Трем десятилеткам приходится взрослеть в непростом для Вьетнама 1980 году, тем не менее — первом мирном году после только что отгремевшей «Первой Социалистической» войны с Китаем. Мальчики Тхиэу, Туонг и девочка Ни, которую ребятня называет принцессой, создают свой романтический мир — немного горький, как окружающая действительность, но в целом беззаботный и сказочный, как само детство.



Релиз от: Visanti-Vasaer

Продолжительность: 01:38:03
Качество видео: HDTVRip
Перевод: Одноголосый закадровый любительский
Автор перевода: visanti-vasaer
Субтитры: отдельными файлами: русские softsub (SRT) , английские softsub (SRT)

Видео: AVC/H.264, 1920x1080, ~3685 Kbps
Аудио: MP2, 2 ch, 224 Kbps | Русский
Аудио 2: MP2, 2 ch, 128 Kbps | Вьетнамский

Mediainfo:


Общее
Уникальный идентификатор : 192135051319988579590108446044672235893 (0x908BDD6824BF8FD18B72C49BE2541975)
Полное имя : E:\Раздачи\Желтые цветы на зеленой траве\Желтые цветы на зеленой траве.mkv
Формат : Matroska
Версия формата : Version 2
Размер файла : 2,82 Гбайт
Продолжительность : 1 ч. 38 м.
Режим общего битрейта : Переменный
Общий поток : 4119 Кбит/сек
Дата кодирования : UTC 2016-12-24 18:07:26
Программа кодирования : mkvmerge v5.0.1 ('Es ist Sommer') built on Oct 24 2011 19:45:06
Библиотека кодирования : libebml v1.2.2 + libmatroska v1.3.0

Видео
Идентификатор : 1
Формат : AVC
Формат/Информация : Advanced Video Codec
Профиль формата : High@L4
Настройки формата : CABAC / 4 Ref Frames
Параметр CABAC формата : Да
Параметр RefFrames формата : 4 кадра
Параметр GOP формата : M=8, N=24
Режим смешивания : Header stripping
Идентификатор кодека : V_MPEG4/ISO/AVC
Продолжительность : 1 ч. 38 м.
Вид битрейта : Переменный
Битрейт : 3685 Кбит/сек
Максимальный битрейт : 40,0 Мбит/сек
Ширина : 1920 пикселей
Высота : 1080 пикселей
Соотношение сторон : 16:9
Режим частоты кадров : Постоянный
Частота кадров : 25,000 кадров/сек
Стандарт вещания : Component
Цветовое пространство : YUV
Субдискретизация насыщенности : 4:2:0
Битовая глубина : 8 бит
Тип развёртки : MBAFF
Метод сохранения типа развёртки : Чередующиеся поля
Порядок развёртки : Верхнее поле первое
Бит/(Пиксели*Кадры) : 0.071
Размер потока : 2,52 Гбайт (89%)
Default : Да
Forced : Нет
Цветовой диапазон : Limited
Основные цвета : BT.709
Характеристики трансфера : BT.709
Коэффициенты матрицы : BT.709

Аудио #1
Идентификатор : 2
Формат : MPEG Audio
Версия формата : Version 1
Профиль формата : Layer 2
Режим смешивания : Header stripping
Идентификатор кодека : A_MPEG/L2
Идентификатор кодека/Подсказка : MP2
Продолжительность : 1 ч. 38 м.
Вид битрейта : Постоянный
Битрейт : 224 Кбит/сек
Каналы : 2 канала
Частота : 44,1 КГц
Метод сжатия : С потерями
Размер потока : 157 Мбайт (5%)
Язык : Russian
Default : Нет
Forced : Нет

Аудио #2
Идентификатор : 3
Формат : MPEG Audio
Версия формата : Version 1
Профиль формата : Layer 2
Режим смешивания : Header stripping
Идентификатор кодека : A_MPEG/L2
Идентификатор кодека/Подсказка : MP2
Продолжительность : 1 ч. 38 м.
Вид битрейта : Постоянный
Битрейт : 128 Кбит/сек
Каналы : 2 канала
Частота : 48,0 КГц
Метод сжатия : С потерями
Задержка видео : 8 мс.
Размер потока : 89,8 Мбайт (3%)
Язык : Vietnamese
Default : Да
Forced : Нет

Дополнительная информация:

Фильм выдвинут Вьетнамом на премию «Оскар» за лучший фильм на иностранном языке в 2017г.
Скриншоты:

Дополнительные скриншоты:



Все одноименные релизы в Клубе

Смотреть Online


Детали торрента:
Название:Желтые цветы на зеленой траве / Tôi thay hoa vàng trên co xanh (Yellow Flowers on the Green Grass) (2015) HDTVRip [VO]
Дата добавления:22 Окт 2018 00:08:45
Размер:2,82 GB
Раздают:1
Качают:0
Форум:Зарубежные Фильмы (HD*Rip/LQ, DVDRip, SATRip, VHSRip)

All rights reserved © 2015-2019