TORRENTS45.XYZ

Скачать Драйв / Непобедимый / Drive (1997) WEBRip [H.264/720p] [hand made 60fps]


Драйв / Непобедимый / Drive (1997) WEBRip [720p] [hand made 60fps]
Производство: США, NEO Motion Pictures
Жанр: Фантастика, Боевик, Комедия, Приключения

Режиссер: Стив Ванг / Steve Wang
Продюсер: Мицуру Куросава, Майкл Лихи, В.К. Бордер
Актеры: Марк Дакаскос, Кадим Хардисон, Джон Пайпер-Фергюсон, Бриттани Мёрфи, Трейси Уолтер, Джеймс Шигета, Масая Като, Дом Магуили, Рон Йуан, Клив Розенгрен, Кристофер Майкл, Тед Смит, Тед Сзето, Р.А. Михайлофф, Дэвид Уоттс, СиСи Тсоу

Описание:
Сан-Франциско. Недалекое будущее. Грузовое судно возвращается из Гонконга с загадочным пассажиром по имени Тоби Уонг. Он сбежал от подпольной корпорации Леунга в поисках свободы на Западе. Однако Тоби попадает в лапы банды хладнокровного Вика Мэдисона. Вырвавшись из банды Мэдисона, он берет в заложники пьяницу Малика Броунди и едет в Лос-Анджелес. В дороге они становятся приятелями, и Тоби даже обучает Малика боевым искусствам. Однажды Малик узнает, что у Тоби имплантирован биомодуль, дающий ему силу и скорость. Это сделал мистер Лау, глава корпорации Леунг, который хочет вернуть беглеца во что бы то ни стало. Сбежавшую парочку преследует и банда Вика Мэдисона и новая жертва мистер Лау с более совершенным биомодулем…


Возраст: 16+ (зрителям, достигшим 16 лет)
Рейтинг MPAA: R (лицам до 17 лет обязательно присутствие взрослого)

Релиз от: NNNB

Продолжительность: 01:39:32
Качество видео: WEBRip 720p (исходник WEBRip)
Перевод: Профессиональный (многоголосый закадровый) ОРТ
Субтитры: отсутствуют

Видео: 1276x720, 5052 Кбит/сек, 59.940 кадр/сек, AVC, x264, 16:9, 0.092 Бит/[Пиксели*Кадры]
Аудио: AC-3, 192 Кбит/сек, 2 канала(ов), 48,0 КГц

Mediainfo:


General
Unique ID : 232268207827236508353669825839843373556 (0xAEBD3ACAE3F76EA2B10F7AA0A7A1F1F4)
Complete name : D:\VHSник\Drajv.(1997).WEBRip.720p.[envy].[60fps].mkv
Format : Matroska
Format version : Version 2
File size : 3.72 GiB
Duration : 1 h 39 min
Overall bit rate : 5 351 kb/s
Movie name : Драйв.(1997).WEBRip.720p.[envy].[60fps]
Encoded date : UTC 2015-10-01 20:20:32
Writing application : mkvmerge v5.8.0 ('No Sleep / Pillow') built on Sep 2 2012 15:37:04
Writing library : libebml v1.2.3 + libmatroska v1.3.0

Video
ID : 1
Format : AVC
Format/Info : Advanced Video Codec
Format profile : High@L4.1
Format settings, CABAC : Yes
Format settings, ReFrames : 9 frames
Codec ID : V_MPEG4/ISO/AVC
Duration : 1 h 39 min
Bit rate : 5 052 kb/s
Width : 1 276 pixels
Height : 720 pixels
Display aspect ratio : 16:9
Frame rate mode : Constant
Frame rate : 59.940 (60000/1001) FPS
Color space : YUV
Chroma subsampling : 4:2:0
Bit depth : 8 bits
Scan type : Progressive
Bits/(Pixel*Frame) : 0.092
Stream size : 3.51 GiB (94%)
Title : Драйв.(1997).WEBRip.720p.[envy].[60fps]
Writing library : x264 core 146 r2538 121396c
Encoding settings : cabac=1 / ref=9 / deblock=1:0:0 / analyse=0x3:0x113 / me=umh / subme=10 / psy=1 / psy_rd=1.00:0.00 / mixed_ref=1 / me_range=24 / chroma_me=1 / trellis=2 / 8x8dct=1 / cqm=0 / deadzone=21,11 / fast_pskip=0 / chroma_qp_offset=-2 / threads=12 / lookahead_threads=1 / sliced_threads=0 / nr=0 / decimate=1 / interlaced=0 / bluray_compat=0 / constrained_intra=0 / bframes=5 / b_pyramid=2 / b_adapt=2 / b_bias=0 / direct=3 / weightb=1 / open_gop=0 / weightp=2 / keyint=250 / keyint_min=25 / scenecut=40 / intra_refresh=0 / rc_lookahead=40 / rc=crf / mbtree=0 / crf=18.0 / qcomp=0.60 / qpmin=0 / qpmax=69 / qpstep=4 / vbv_maxrate=14000 / vbv_bufsize=14000 / crf_max=0.0 / nal_hrd=none / filler=0 / ip_ratio=1.40 / pb_ratio=1.30 / aq=3:1.00
Language : English
Default : Yes
Forced : No

Audio
ID : 2
Format : AC-3
Format/Info : Audio Coding 3
Format settings, Endianness : Big
Codec ID : A_AC3
Duration : 1 h 39 min
Bit rate mode : Constant
Bit rate : 192 kb/s
Channel(s) : 2 channels
Channel positions : Front: L R
Sampling rate : 48.0 kHz
Frame rate : 31.250 FPS (1536 spf)
Bit depth : 16 bits
Compression mode : Lossy
Stream size : 137 MiB (4%)
Title : ОРТ
Language : Russian
Service kind : Complete Main
Default : Yes
Forced : No

Прочтите перед скачиванием:


Прежде чем скачивать фильм полностью, скачайте "сэмпл", и проверьте будет ли воспроизводится видео на вашем устройстве!

Q: Присутствуют ли артефакты на изображении?
A: Да, есть, и будут, какие настройки скритпа не вписывай они будут постоянно! Так как это дорисованные кадры из исходных + Видео ряд обработан фильтром "Sharp"

Q: У меня не запускается видео на компьютере?
A: Обновите кодеки. (попробуйте другие видео проигрыватели)

Q: У меня идет рассинхрон звука и видео?
A: Проблема в мощности компьютера. (возможно также нужно обновить кодеки)

Q: Что нужно для воспроизведения данного видео.
A: Что рекомендуется для воспроизведения мной:
Процессор: 4х ядерный
Видео карта: минимум 512Мб. И желательно включить обработку изображения с помощью видео карты. (Деинтерлейсинг, подавление блочности и т.д.)
ОЗУ: 2-4Гб

Проигрыватели.
MPC-HC (Media Player Classic - Home Cinema)
The KMPlayer (Korean Multimedia Player) (оптимальный вариант)
Mirillis Splash PRO (Если что то проигрыватель сам может преобразовывать видео вплоть до частоты кадров монитора. Или тех же 60fps.)
Скриншоты:


Все одноименные релизы в Клубе

Смотреть Online

http://moonwalk.cc/video/2ab9587387edfb57/iframe
Детали торрента:
Название:Драйв / Непобедимый / Drive (1997) WEBRip [H.264/720p] [hand made 60fps]
Дата добавления:21 Окт 2018 15:48:20
Размер:3,72 GB
Раздают:12
Качают:0
Форум:hand made * video

All rights reserved © 2015-2018