TORRENTS45.XYZ

Скачать Ной / Noah (2014) BDRip [H.265/1080p-LQ] [10-bit]


Ной / Noah (2014) BDRip
Производство: США
Жанр: Драма, Приключения, Фэнтези

Режиссер: Даррен Аронофски
Актеры: Расселл Кроу, Эмма Уотсон, Логан Лерман, Дженнифер Коннелли

Описание:
Библейские сюжеты давно и прочно вошли в нашу жизнь: вряд ли есть человек, не знающий о запретном плоде или о первородном грехе.


Возраст: 12+ (зрителям, достигшим 12 лет)
Рейтинг MPAA: PG-13 (детям до 13 лет просмотр нежелателен)

Релиз от: Kino-Mix

Продолжительность: 02:17:53
Качество видео: BDRip
Перевод: Дублированный (Лицензия)
Субтитры: Русские (форсированные, полные), английские

Видео: HEVC/H.265, 1920x1040, ~4962 Kbps
Аудио 1: AC3, 6 ch, 448 Kbps - Дублированный
Аудио 2: AC3, 6 ch, 448 Kbps - Английский

Mediainfo:


Общее
Уникальный идентификатор : 332930399006916196926344606458360222107 (0xFA780FFEFAA0DB41299C49F4B415D19B)
Полное имя : F:\РАЗДАЧИ\Ной. 2014. 1080p. HEVC. 10 bit..mkv
Формат : Matroska
Версия формата : Version 4 / Version 2
Размер файла : 5,64 Гбайт
Продолжительность : 2 ч. 17 м.
Общий поток : 5860 Кбит/сек
Дата кодирования : UTC 2018-10-21 08:43:30
Программа кодирования : mkvmerge v21.0.0 ('Tardigrades Will Inherit The Earth') 64-bit
Библиотека кодирования : libebml v1.3.5 + libmatroska v1.4.8
Обложка : Yes
Attachments : cover1.jpg

Видео
Идентификатор : 1
Формат : HEVC
Формат/Информация : High Efficiency Video Coding
Профиль формата : Main 10@L4@Main
Идентификатор кодека : V_MPEGH/ISO/HEVC
Продолжительность : 2 ч. 17 м.
Битрейт : 4962 Кбит/сек
Ширина : 1920 пикселей
Высота : 1040 пикселей
Соотношение сторон : 1,85:1
Режим частоты кадров : Постоянный
Частота кадров : 23,976 (24000/1001) кадра/сек
Цветовое пространство : YUV
Субдискретизация насыщенности : 4:2:0
Битовая глубина : 10 бит
Бит/(Пиксели*Кадры) : 0.104
Размер потока : 4,78 Гбайт (85%)
Библиотека кодирования : x265 2.8+70-33a782b23f2c:[Windows][GCC 8.2.0][64 bit] 10bit
Настройки программы : cpuid=1111039 / frame-threads=3 / numa-pools=8 / wpp / no-pmode / no-pme / no-psnr / no-ssim / log-level=2 / input-csp=1 / input-res=1920x1040 / interlace=0 / total-frames=198357 / level-idc=0 / high-tier=1 / uhd-bd=0 / ref=4 / no-allow-non-conformance / no-repeat-headers / annexb / no-aud / no-hrd / info / hash=0 / no-temporal-layers / open-gop / min-keyint=23 / keyint=250 / gop-lookahead=0 / bframes=4 / b-adapt=2 / b-pyramid / bframe-bias=0 / rc-lookahead=25 / lookahead-slices=4 / scenecut=40 / radl=0 / no-intra-refresh / ctu=64 / min-cu-size=8 / rect / no-amp / max-tu-size=32 / tu-inter-depth=1 / tu-intra-depth=1 / limit-tu=0 / rdoq-level=2 / dynamic-rd=0.00 / no-ssim-rd / signhide / no-tskip / nr-intra=0 / nr-inter=0 / no-constrained-intra / strong-intra-smoothing / max-merge=3 / limit-refs=3 / limit-modes / me=3 / subme=3 / merange=57 / temporal-mvp / weightp / no-weightb / no-analyze-src-pics / deblock=0:0 / sao / no-sao-non-deblock / rd=4 / no-early-skip / rskip / no-fast-intra / no-tskip-fast / no-cu-lossless / no-b-intra / no-splitrd-skip / rdpenalty=0 / psy-rd=2.00 / psy-rdoq=1.00 / no-rd-refine / no-lossless / cbqpoffs=0 / crqpoffs=0 / rc=abr / bitrate=4964 / qcomp=0.60 / qpstep=4 / stats-write=0 / stats-read=2 / cplxblur=20.0 / qblur=0.5 / ipratio=1.40 / pbratio=1.30 / aq-mode=3 / aq-strength=1.00 / cutree / zone-count=0 / no-strict-cbr / qg-size=32 / no-rc-grain / qpmax=69 / qpmin=0 / no-const-vbv / sar=0 / overscan=0 / videoformat=5 / range=0 / colorprim=2 / transfer=2 / colormatrix=2 / chromaloc=0 / display-window=0 / max-cll=0,0 / min-luma=0 / max-luma=1023 / log2-max-poc-lsb=8 / vui-timing-info / vui-hrd-info / slices=1 / no-opt-qp-pps / no-opt-ref-list-length-pps / multi-pass-opt-rps / scenecut-bias=0.05 / no-opt-cu-delta-qp / aq-motion / no-hdr / no-hdr-opt / no-dhdr10-opt / no-idr-recovery-sei / analysis-reuse-level=5 / scale-factor=0 / refine-intra=0 / refine-inter=0 / refine-mv=0 / no-limit-sao / ctu-info=0 / no-lowpass-dct / refine-mv-type=0 / copy-pic=1 / max-ausize-factor=1.0 / no-dynamic-refine / no-single-sei
Default : Да
Forced : Нет

Аудио #1
Идентификатор : 2
Формат : AC-3
Формат/Информация : Audio Coding 3
Идентификатор кодека : A_AC3
Продолжительность : 2 ч. 17 м.
Вид битрейта : Постоянный
Битрейт : 448 Кбит/сек
Каналы : 6 каналов
Расположение каналов : Front: L C R, Side: L R, LFE
Частота : 48,0 КГц
Частота кадров : 31,250 кадров/сек (1536 SPF)
Битовая глубина : 16 бит
Метод сжатия : С потерями
Размер потока : 442 Мбайт (8%)
Заголовок : Dub (Blu-ray CEE)
Язык : Russian
ServiceKind/String : Complete Main
Default : Да
Forced : Да

Аудио #2
Идентификатор : 3
Формат : AC-3
Формат/Информация : Audio Coding 3
Идентификатор кодека : A_AC3
Продолжительность : 2 ч. 17 м.
Вид битрейта : Постоянный
Битрейт : 448 Кбит/сек
Каналы : 6 каналов
Расположение каналов : Front: L C R, Side: L R, LFE
Частота : 48,0 КГц
Частота кадров : 31,250 кадров/сек (1536 SPF)
Битовая глубина : 16 бит
Метод сжатия : С потерями
Размер потока : 442 Мбайт (8%)
Язык : English
ServiceKind/String : Complete Main
Default : Нет
Forced : Нет

Текст #1
Идентификатор : 4
Формат : UTF-8
Идентификатор кодека : S_TEXT/UTF8
Идентификатор кодека/Информация : UTF-8 Plain Text
Продолжительность : 4 м. 5 с.
Битрейт : 29 бит/сек
ElementCount : 13
Размер потока : 910 байт (0%)
Заголовок : Forced
Язык : Russian
Default : Да
Forced : Да

Текст #2
Идентификатор : 5
Формат : UTF-8
Идентификатор кодека : S_TEXT/UTF8
Идентификатор кодека/Информация : UTF-8 Plain Text
Продолжительность : 2 ч. 8 м.
Битрейт : 46 бит/сек
ElementCount : 1198
Размер потока : 43,5 Кбайт (0%)
Заголовок : Full
Язык : Russian
Default : Нет
Forced : Нет

Текст #3
Идентификатор : 6
Формат : UTF-8
Идентификатор кодека : S_TEXT/UTF8
Идентификатор кодека/Информация : UTF-8 Plain Text
Продолжительность : 2 ч. 8 м.
Битрейт : 28 бит/сек
ElementCount : 1120
Размер потока : 27,2 Кбайт (0%)
Заголовок : Full
Язык : English
Default : Нет
Forced : Нет

Меню
00:00:00.000 : en:Chapter 01
00:04:48.955 : en:Chapter 02
00:08:37.266 : en:Chapter 03
00:12:23.033 : en:Chapter 04
00:18:43.080 : en:Chapter 05
00:23:25.487 : en:Chapter 06
00:32:06.424 : en:Chapter 07
00:37:27.203 : en:Chapter 08
00:42:50.734 : en:Chapter 09
00:54:35.647 : en:Chapter 10
01:01:14.962 : en:Chapter 11
01:03:28.596 : en:Chapter 12
01:09:33.794 : en:Chapter 13
01:19:18.336 : en:Chapter 14
01:21:56.536 : en:Chapter 15
01:29:12.347 : en:Chapter 16
01:34:02.053 : en:Chapter 17
01:40:27.354 : en:Chapter 18
01:49:23.098 : en:Chapter 19
01:55:57.825 : en:Chapter 20
02:00:37.230 : en:Chapter 21
02:11:32.676 : en:Chapter 22

Внимание. H.265/HEVC

Доп. информация: -
H.265/HEVC (High Efficiency Video Coding) - это новый стандарт кодирования видео.
- Стандарт H.265/HEVC является логическим продолжением стандарта
H.264/AVC (Advanced Video Coding), и характеризуется более эффективными
алгоритмами сжатия, а также поддержкой высокого разрешения вплоть до 8K UHD
(8192x4320). Первая версия стандарта H.265 была опубликована в начале 2013 года.
- Рипы в фомате HEVC поддерживается не всеми аппаратными проигрывателями.
- Для корректного воспроизведения может потребоваться обновление ПО.
- Владельцам несовместимого железа просьба не беспокоить,
есть альтернативные релизы.
Скриншоты:


Все одноименные релизы в Клубе

Смотреть Online


Детали торрента:
Название:Ной / Noah (2014) BDRip [H.265/1080p-LQ] [10-bit]
Дата добавления:21 Окт 2018 15:18:23
Размер:5,64 GB
Раздают:6
Качают:0
Форум:Зарубежные Фильмы (HD*Rip/LQ, DVDRip, SATRip, VHSRip)

All rights reserved © 2015-2019