TORRENTS45.XYZ

Скачать Быстрее пули / Faster (2010) BDRip [H.265/1080p-LQ] [10-bit]


Быстрее пули / Faster (2010) BDRip
Производство: США
Жанр: Боевик, Триллер, Драма, Криминал

Режиссер: Джордж Тиллман мл.
Актеры: Дуэйн Джонсон, Билли Боб Торнтон, Оливер Джексон-Коэн

Описание:
После десяти лет, проведенных в тюрьме, у Драйвера одна цель: выследить и уничтожить людей, замешанных в жестоком убийстве его брата. Наконец-то обретя свободу, он готов пойти на все, чтобы выполнить свою жестокую миссию и разделаться с теми, кто попал в его черный список.


Возраст: 18+ (зрителям, достигшим 18 лет. запрещено для детей)
Рейтинг MPAA: R (лицам до 17 лет обязательно присутствие взрослого)

Релиз от: HANNIBAL

Продолжительность: 01:37:57
Качество видео: BDRip
Перевод: Дублированный
Субтитры: нет

Видео: HEVC/H.265, 1920x800, ~7865 Kbps
Аудио: AC3, 6 ch, 448 Kbps - Дублированный

Mediainfo:


Общее
Уникальный идентификатор : 255665263488739297363725295646245838481 (0xC05756B3075A97E372D5CF7D8D0ADE91)
Полное имя : F:\РАЗДАЧИ\Faster (2010) BDRip 1080p [HEVC] 10bit.mkv
Формат : Matroska
Версия формата : Version 4 / Version 2
Размер файла : 5,80 Гбайт
Продолжительность : 1 ч. 37 м.
Общий поток : 8481 Кбит/сек
Название фильма : Быстрее Пули
Описание : Проведя 10 лет в тюрьме, Драйвер (Дуэйн Джонсон) сосредоточился на одной цели – выследить жестоких убийц своего брата. Свободный человек с ужасной задачей собирается убить всех, кто есть в списке. Ему на пятки наступают двое, готовых на все, чтоб его остановить – немолодой полицейский (Билли Боб Торнтон) и убийца (Оливер Джексон-Коэн), нашедший себе достойного противника. Теперь охотник становится дичью.
Программа кодирования : XviD4PSP 7.0.457 DAILY
Библиотека кодирования : Lavf57.71.100
ErrorDetectionType : Per level 1
Attachments : poster.jpg
DATE : 2008-09-18
ENCODING_INFO : MPEGTS > MKV 1080p 10-bit / H264 > X265 CRF 19.0 Medium / AC3 > AC3 CBR 448kbps
GENRE : Боевики и приключения
HD_VIDEO : 1
ITUNEXTC : ru-movie|16+|375|
Язык : und
MEDIA_TYPE : 9
SYNOPSIS : Проведя 10 лет в тюрьме, Драйвер (Дуэйн Джонсон) сосредоточился на одной цели – выследить жестоких убийц своего брата. Свободный человек с ужасной задачей собирается убить всех, кто есть в списке. Ему на пятки наступают двое, готовых на все, чтоб его остановить – немолодой полицейский (Билли Боб Торнтон) и убийца (Оливер Джексон-Коэн), нашедший себе достойного противника. Теперь охотник становится дичью.

Видео
Идентификатор : 1
Формат : HEVC
Формат/Информация : High Efficiency Video Coding
Профиль формата : Main 10@L5.1@High
Идентификатор кодека : V_MPEGH/ISO/HEVC
Продолжительность : 1 ч. 37 м.
Битрейт : 7865 Кбит/сек
Ширина : 1920 пикселей
Высота : 800 пикселей
Соотношение сторон : 2,40:1
Режим частоты кадров : Постоянный
Частота кадров : 23,976 (24000/1001) кадра/сек
Цветовое пространство : YUV
Субдискретизация насыщенности : 4:2:0
Битовая глубина : 10 бит
Бит/(Пиксели*Кадры) : 0.214
Размер потока : 5,38 Гбайт (93%)
Библиотека кодирования : x265 2.8+19-bcdc610cf5f0:[Windows][GCC 7.3.0][64 bit] 10bit
Настройки программы : cpuid=1111039 / frame-threads=13 / numa-pools=12 / wpp / no-pmode / no-pme / no-psnr / no-ssim / log-level=3 / input-csp=1 / input-res=1920x800 / interlace=0 / total-frames=0 / level-idc=51 / high-tier=1 / uhd-bd=0 / ref=3 / allow-non-conformance / no-repeat-headers / annexb / no-aud / no-hrd / info / hash=0 / no-temporal-layers / open-gop / min-keyint=24 / keyint=240 / gop-lookahead=0 / bframes=7 / b-adapt=2 / b-pyramid / bframe-bias=0 / rc-lookahead=40 / lookahead-slices=5 / scenecut=40 / radl=0 / no-intra-refresh / ctu=64 / min-cu-size=8 / rect / amp / max-tu-size=32 / tu-inter-depth=1 / tu-intra-depth=1 / limit-tu=0 / rdoq-level=0 / dynamic-rd=0.00 / no-ssim-rd / signhide / no-tskip / nr-intra=0 / nr-inter=0 / no-constrained-intra / no-strong-intra-smoothing / max-merge=2 / limit-refs=3 / no-limit-modes / me=3 / subme=7 / merange=57 / temporal-mvp / weightp / no-weightb / no-analyze-src-pics / deblock=-3:-3 / no-sao / no-sao-non-deblock / rd=3 / no-early-skip / rskip / no-fast-intra / no-tskip-fast / no-cu-lossless / no-b-intra / no-splitrd-skip / rdpenalty=0 / psy-rd=2.00 / psy-rdoq=0.00 / no-rd-refine / no-lossless / cbqpoffs=0 / crqpoffs=0 / rc=crf / crf=19.0 / qcomp=0.60 / qpstep=4 / stats-write=0 / stats-read=0 / vbv-maxrate=160000 / vbv-bufsize=160000 / vbv-init=0.9 / crf-max=0.0 / crf-min=0.0 / ipratio=1.40 / pbratio=1.30 / aq-mode=1 / aq-strength=1.00 / cutree / zone-count=0 / no-strict-cbr / qg-size=32 / no-rc-grain / qpmax=69 / qpmin=0 / no-const-vbv / sar=1 / overscan=0 / videoformat=5 / range=0 / colorprim=1 / transfer=1 / colormatrix=1 / chromaloc=0 / display-window=0 / max-cll=0,0 / min-luma=0 / max-luma=1023 / log2-max-poc-lsb=8 / vui-timing-info / vui-hrd-info / slices=1 / no-opt-qp-pps / no-opt-ref-list-length-pps / no-multi-pass-opt-rps / scenecut-bias=0.05 / no-opt-cu-delta-qp / no-aq-motion / no-hdr / no-hdr-opt / no-dhdr10-opt / no-idr-recovery-sei / analysis-reuse-level=5 / scale-factor=0 / refine-intra=0 / refine-inter=0 / refine-mv=0 / no-limit-sao / ctu-info=0 / no-lowpass-dct / refine-mv-type=0 / copy-pic=1 / max-ausize-factor=1.0 / no-dynamic-refine / no-single-sei
Default : Да
Forced : Нет
Цветовой диапазон : Limited
Основные цвета : BT.709
Характеристики трансфера : BT.709
Коэффициенты матрицы : BT.709

Аудио
Идентификатор : 2
Формат : AC-3
Формат/Информация : Audio Coding 3
Идентификатор кодека : A_AC3
Продолжительность : 1 ч. 37 м.
Вид битрейта : Постоянный
Битрейт : 448 Кбит/сек
Каналы : 6 каналов
Расположение каналов : Front: L C R, Side: L R, LFE
Частота : 48,0 КГц
Частота кадров : 31,250 кадров/сек (1536 SPF)
Битовая глубина : 16 бит
Метод сжатия : С потерями
Размер потока : 314 Мбайт (5%)
ServiceKind/String : Complete Main
Default : Да
Forced : Нет

Внимание. H.265/HEVC

Доп. информация: -
H.265/HEVC (High Efficiency Video Coding) - это новый стандарт кодирования видео.
- Стандарт H.265/HEVC является логическим продолжением стандарта
H.264/AVC (Advanced Video Coding), и характеризуется более эффективными
алгоритмами сжатия, а также поддержкой высокого разрешения вплоть до 8K UHD
(8192x4320). Первая версия стандарта H.265 была опубликована в начале 2013 года.
- Рипы в фомате HEVC поддерживается не всеми аппаратными проигрывателями.
- Для корректного воспроизведения может потребоваться обновление ПО.
- Владельцам несовместимого железа просьба не беспокоить,
есть альтернативные релизы.
Скриншоты:


Все одноименные релизы в Клубе

Смотреть Online


Детали торрента:
Название:Быстрее пули / Faster (2010) BDRip [H.265/1080p-LQ] [10-bit]
Дата добавления:21 Окт 2018 14:25:41
Размер:5,8 GB
Раздают:6
Качают:0
Форум:Зарубежные Фильмы (HD*Rip/LQ, DVDRip, SATRip, VHSRip)

All rights reserved © 2015-2019