TORRENTS45.XYZ

Скачать Селфи с судьбой (2018) WEB-DL [H.264/1080p-LQ] (серии 1-4 из 4)


Селфи с судьбой (2018) WEB-DL [H.264/1080p-LQ] (серии 1-4 из 4)
Производство: Россия / Свэлл Фильм
Жанр: детектив

Режиссер: Петр Амелин
Актеры: Антон Хабаров, Анастасия Лошакова, Екатерина Решетникова, Алексей Митин, Юлия Полынская, Игорь Вуколов, Маргарита Павлова, Роман Кочержевский, Борис Хвошнянский, Игорь Лепихин

Описание:
У профессора физико-математических наук Ильи Субботина странное хобби — он разгадывает преступления. В этот раз ему придётся разбираться в убийстве почтенной дамы, которую задушили в сувенирном магазинчике села Сокольничьего. Дело вроде бы закрыто. Преступник — местный пьянчужка, задержан по горячим следам, но Илья в это не верит и стремится установить истину. В местном доме отдыха вокруг него собирается любопытная компания: экстравагантная поэтесса, что-то скрывающая экскурсоводша, чудаковатый парень, немолодой джентльмен, парочка, «не вылезающая» из интернета, печальная красотка и известный кинорежиссёр. Кто-то из них убийца. Но кто?


Возраст: 12+ (зрителям, достигшим 12 лет)
Дата российской премьеры: 20 октября 2018

Релиз от: Алехаndr

Продолжительность: ~00:43:00 серия
Качество видео: WEB-DL

Видео: AVC/H.264, 1920x1080 (16:9), ~2675 Kbps
Аудио: AC3, 2 ch, 192 Kbps

Mediainfo:


Общее
Уникальный идентификатор : 59047510915410404931137668025520610788 (0x2C6C230E96A4C44336B5AA6AA541DDE4)
Полное имя : D:\Селфи с судьбой (2018).by.Алехаndr\Серия 1.by.Алехаndr.mkv
Формат : Matroska
Версия формата : Version 4
Размер файла : 924 Мбайт
Продолжительность : 43 м. 43 с.
Общий поток : 2954 Кбит/сек
Дата кодирования : UTC 2018-10-20 16:30:46
Программа кодирования : mkvmerge v27.0.0 ('Metropolis') 32-bit
Библиотека кодирования : libebml v1.3.6 + libmatroska v1.4.9 / Lavf57.71.100

Видео
Идентификатор : 1
Формат : AVC
Формат/Информация : Advanced Video Codec
Профиль формата : High@L4
Настройки формата : CABAC / 2 Ref Frames
Параметр CABAC формата : Да
Параметр RefFrames формата : 2 кадра
Идентификатор кодека : V_MPEG4/ISO/AVC
Продолжительность : 43 м. 43 с.
Битрейт : 2760 Кбит/сек
Ширина : 1920 пикселей
Высота : 1080 пикселей
Соотношение сторон : 16:9
Режим частоты кадров : Постоянный
Частота кадров : 25,000 кадров/сек
Цветовое пространство : YUV
Субдискретизация насыщенности : 4:2:0
Битовая глубина : 8 бит
Тип развёртки : Прогрессивная
Бит/(Пиксели*Кадры) : 0.053
Размер потока : 863 Мбайт (93%)
Default : Да
Forced : Нет
Цветовой диапазон : Limited
Основные цвета : BT.709
Характеристики трансфера : BT.709
Коэффициенты матрицы : BT.709

Аудио
Идентификатор : 2
Формат : AC-3
Формат/Информация : Audio Coding 3
Коммерческое название : Dolby Digital
Идентификатор кодека : A_AC3
Продолжительность : 43 м. 43 с.
Вид битрейта : Постоянный
Битрейт : 192 Кбит/сек
Каналы : 2 канала
Channel layout : L R
Частота : 48,0 КГц
Частота кадров : 31,250 кадров/сек (1536 SPF)
Битовая глубина : 16 бит
Метод сжатия : С потерями
Размер потока : 60,0 Мбайт (6%)
Язык : English
ServiceKind/String : Complete Main
Default : Да
Forced : Нет
Скриншоты:


Все одноименные релизы в Клубе

Смотреть Online

http://moonwalk.cc/serial/2dbf1f80576c97a316e378d0f47f032c/iframe
Детали торрента:
Название:Селфи с судьбой (2018) WEB-DL [H.264/1080p-LQ] (серии 1-4 из 4)
Дата добавления:20 Окт 2018 19:42:36
Размер:3,33 GB
Раздают:19
Качают:0
Форум:Отечественные сериалы

All rights reserved © 2015-2018