TORRENTS45.XYZ

Скачать Аннигиляция / Annihilation (2017) BDRip [H.264/720р-LQ] [MVO]


Аннигиляция / Annihilation (2017) BDRip [H.264/720р-LQ]
Производство: Великобритания, США / DNA Films, Paramount Pictures, Scott Rudin Productions, Skydance Productions
Жанр: Ужасы, Фантастика, Триллер, Драма, Детектив, Приключения

Режиссер: Алекс Гарленд
Продюсер: Джо Берн, Эли Буш, Дэвид Эллисон
Актеры: Натали Портман, Бенедикт Вонг, Соноя Мидзуно, Дэвид Гяси, Оскар Айзек, Джон Шваб, Дженнифер Джейсон Ли, Джина Родригез, Тува Новотны, Тесса Томпсон

Описание:
На Землю прилетает маленький метеорит и становится причиной больших перемен. Он врезается в одиноко стоящий маяк, что загадочным образом меняет территорию вокруг.
Профессор биологии Лина уже год страдает от потери мужа-военного. Кейн отправился на очередное секретное задание, но так и не вернулся — жив ли, погиб — женщина не знает, пока однажды дезориентированный и слегка бледный супруг внезапно не появляется на пороге их спальни. Радость длится недолго — у мужчины начинаются судороги и множественные кровотечения, а по дороге в больницу машину скорой помощи тормозят военные. Лина приходит в себя на секретной базе рядом с той самой загадочной зоной, куда уже отправлялись многочисленные экспедиции, но вернулся, оказывается, только один человек — её Кейн.


Рейтинг MPAA: R (лицам до 17 лет обязательно присутствие взрослого)

Релиз от: Охрана (Torrents45.xyz)
Продолжительность: 01:55:26
Качество видео: BDRip
Перевод: Многоголосый закадровый, авторский
Субтитры: Русские, английские

Видео: AVC/H.264, 1280x536, ~2875 Kbps
Аудио 1: AC3, 6 ch, 384 Kbps, 48.0 kHz – Русский MVO, Jaskier
Аудио 2: AC3, 2 ch, 192 Kbps, 48.0 kHz – Русский MVO, NewStudio [ненормативная лексика]
Аудио 3: AC3, 2 ch, 192 Kbps, 48.0 kHz – Русский MVO, HDRezka studio
Аудио 4: AC3, 2 ch, 192 Kbps, 48.0 kHz – Русский AVO, Михаил " kyberpunk" Яроцкий [ненормативная лексика]
Аудио 5: AC3, 2 ch, 192 Kbps, 48.0 kHz – Английский, оригинал

Mediainfo:


Общее
Уникальный идентификатор : 180636082460816159735700800756356455698 (0x87E53E7868ED2134BAFB16489A6F9D12)
Полное имя : B:\Downloads\Аннигиляция. 2017. torrents45.xyzv
Формат : Matroska
Версия формата : Version 4 / Version 2
Размер файла : 3,24 Гбайт
Продолжительность : 1 ч. 55 м.
Общий поток : 4016 Кбит/сек
Дата кодирования : UTC 2018-10-18 11:50:12
Программа кодирования : mkvmerge v7.9.0 ('Birds') 64bit
Библиотека кодирования : libebml v1.3.1 + libmatroska v1.4.2

Видео
Идентификатор : 1
Формат : AVC
Формат/Информация : Advanced Video Codec
Профиль формата : High@L4.1
Настройки формата : CABAC / 12 Ref Frames
Параметр CABAC формата : Да
Параметр RefFrames формата : 12 кадров
Идентификатор кодека : V_MPEG4/ISO/AVC
Продолжительность : 1 ч. 55 м.
Битрейт : 2875 Кбит/сек
Ширина : 1280 пикселей
Высота : 536 пикселей
Соотношение сторон : 2,40:1
Режим частоты кадров : Постоянный
Частота кадров : 23,976 (24000/1001) кадра/сек
Цветовое пространство : YUV
Субдискретизация насыщенности : 4:2:0
Битовая глубина : 8 бит
Тип развёртки : Прогрессивная
Бит/(Пиксели*Кадры) : 0.175
Размер потока : 2,31 Гбайт (71%)
Заголовок : Annihilation
Библиотека кодирования : x264 core 146 r2538 121396c
Настройки программы : cabac=1 / ref=12 / deblock=1:-1:-1 / analyse=0x3:0x113 / me=umh / subme=10 / psy=1 / psy_rd=1.00:0.10 / mixed_ref=1 / me_range=32 / chroma_me=1 / trellis=2 / 8x8dct=1 / cqm=0 / deadzone=21,11 / fast_pskip=0 / chroma_qp_offset=-3 / threads=6 / lookahead_threads=1 / sliced_threads=0 / nr=0 / decimate=0 / interlaced=0 / bluray_compat=0 / constrained_intra=0 / bframes=9 / b_pyramid=2 / b_adapt=2 / b_bias=0 / direct=3 / weightb=1 / open_gop=0 / weightp=2 / keyint=250 / keyint_min=25 / scenecut=40 / intra_refresh=0 / rc_lookahead=60 / rc=2pass / mbtree=1 / bitrate=2875 / ratetol=1.0 / qcomp=0.60 / qpmin=0 / qpmax=69 / qpstep=4 / cplxblur=20.0 / qblur=0.5 / vbv_maxrate=14000 / vbv_bufsize=14000 / nal_hrd=none / filler=0 / ip_ratio=1.40 / aq=1:1.00
Язык : English
Default : Да
Forced : Нет

Аудио #1
Идентификатор : 2
Формат : AC-3
Формат/Информация : Audio Coding 3
Идентификатор кодека : A_AC3
Продолжительность : 1 ч. 55 м.
Вид битрейта : Постоянный
Битрейт : 384 Кбит/сек
Каналы : 6 каналов
Расположение каналов : Front: L C R, Side: L R, LFE
Частота : 48,0 КГц
Частота кадров : 31,250 кадров/сек (1536 SPF)
Битовая глубина : 16 бит
Метод сжатия : С потерями
Размер потока : 317 Мбайт (10%)
Заголовок : Многоголосый закадровый, Jaskier
Язык : Russian
ServiceKind/String : Complete Main
Default : Да
Forced : Нет

Аудио #2
Идентификатор : 3
Формат : AC-3
Формат/Информация : Audio Coding 3
Идентификатор кодека : A_AC3
Продолжительность : 1 ч. 55 м.
Вид битрейта : Постоянный
Битрейт : 192 Кбит/сек
Каналы : 2 канала
Расположение каналов : Front: L R
Частота : 48,0 КГц
Частота кадров : 31,250 кадров/сек (1536 SPF)
Битовая глубина : 16 бит
Метод сжатия : С потерями
Размер потока : 159 Мбайт (5%)
Заголовок : Многоголосый закадровый, NewStudio
Язык : Russian
ServiceKind/String : Complete Main
Default : Нет
Forced : Нет

Аудио #3
Идентификатор : 4
Формат : AC-3
Формат/Информация : Audio Coding 3
Идентификатор кодека : A_AC3
Продолжительность : 1 ч. 55 м.
Вид битрейта : Постоянный
Битрейт : 192 Кбит/сек
Каналы : 2 канала
Расположение каналов : Front: L R
Частота : 48,0 КГц
Частота кадров : 31,250 кадров/сек (1536 SPF)
Битовая глубина : 16 бит
Метод сжатия : С потерями
Размер потока : 159 Мбайт (5%)
Заголовок : Многоголосый закадровый, HDRezka studio
Язык : Russian
ServiceKind/String : Complete Main
Default : Нет
Forced : Нет

Аудио #4
Идентификатор : 5
Формат : AC-3
Формат/Информация : Audio Coding 3
Идентификатор кодека : A_AC3
Продолжительность : 1 ч. 55 м.
Вид битрейта : Постоянный
Битрейт : 192 Кбит/сек
Каналы : 2 канала
Расположение каналов : Front: L R
Частота : 48,0 КГц
Частота кадров : 31,250 кадров/сек (1536 SPF)
Битовая глубина : 16 бит
Метод сжатия : С потерями
Размер потока : 159 Мбайт (5%)
Заголовок : Авторский, М.Яроцкий
Язык : Russian
ServiceKind/String : Complete Main
Default : Нет
Forced : Нет

Аудио #5
Идентификатор : 6
Формат : AC-3
Формат/Информация : Audio Coding 3
Идентификатор кодека : A_AC3
Продолжительность : 1 ч. 55 м.
Вид битрейта : Постоянный
Битрейт : 192 Кбит/сек
Каналы : 2 канала
Расположение каналов : Front: L R
Частота : 48,0 КГц
Частота кадров : 31,250 кадров/сек (1536 SPF)
Битовая глубина : 16 бит
Метод сжатия : С потерями
Размер потока : 158 Мбайт (5%)
Заголовок : Оригинал
Язык : English
ServiceKind/String : Complete Main
Default : Нет
Forced : Нет

Текст #1
Идентификатор : 7
Формат : UTF-8
Идентификатор кодека : S_TEXT/UTF8
Идентификатор кодека/Информация : UTF-8 Plain Text
Продолжительность : 1 ч. 46 м.
Битрейт : 59 бит/сек
ElementCount : 915
Размер потока : 46,7 Кбайт (0%)
Заголовок : FOCS
Язык : Russian
Default : Нет
Forced : Нет

Текст #2
Идентификатор : 8
Формат : UTF-8
Идентификатор кодека : S_TEXT/UTF8
Идентификатор кодека/Информация : UTF-8 Plain Text
Продолжительность : 1 ч. 46 м.
Битрейт : 55 бит/сек
ElementCount : 920
Размер потока : 43,3 Кбайт (0%)
Заголовок : SRT
Язык : Russian
Default : Нет
Forced : Нет

Текст #3
Идентификатор : 9
Формат : UTF-8
Идентификатор кодека : S_TEXT/UTF8
Идентификатор кодека/Информация : UTF-8 Plain Text
Продолжительность : 1 ч. 46 м.
Битрейт : 34 бит/сек
ElementCount : 940
Размер потока : 27,1 Кбайт (0%)
Заголовок : SRT
Язык : English
Default : Нет
Forced : Нет
Скриншоты:

Дополнительные скриншоты:



Все одноименные релизы в Клубе

Смотреть Online


Детали торрента:
Название:Аннигиляция / Annihilation (2017) BDRip [H.264/720р-LQ] [MVO]
Дата добавления:20 Окт 2018 06:30:39
Размер:3,24 GB
Раздают:5
Качают:1
Форум:Зарубежные Фильмы (HD*Rip/LQ, DVDRip, SATRip, VHSRip)

All rights reserved © 2015-2019