TORRENTS45.XYZ

Скачать Defeater - Travels (2008) [FLAC|Lossless|tracks + .cue] <Melodic Hardcore>


Defeater - Travels (2008)
Жанр: Melodic Hardcore
Издание: Topshelf Records - TSR013
Продолжительность: 00:32:15

Кодек: FLAC
Битрейт: Lossless
Тип рипа: tracks + .cue

Треклист:
01. Blessed Burden (3:04)
02. Everything Went Quiet (2:41)
03. Nameless Streets (3:05)
04. Forgiver Forgetter (2:32)
05. The City by Dawn (2:29)
06. Prophet in Plain Clothes (4:06)
07. Carrying Weight (2:25)
08. Moon Shine (2:11)
09. The Blues (0:57)
10. Debts (2:26)
11. Cowardice (6:19)

Отчёт EAC:


Exact Audio Copy V0.99 prebeta 3 from 28. July 2007

EAC extraction logfile from 20. June 2009, 21:13

Defeater / Travels

Used drive : LITE-ON DVDRW LH-20A1H Adapter: 0 ID: 0

Read mode : Secure
Utilize accurate stream : Yes
Defeat audio cache : Yes
Make use of C2 pointers : No

Read offset correction : 6
Overread into Lead-In and Lead-Out : No
Fill up missing offset samples with silence : Yes
Delete leading and trailing silent blocks : No
Null samples used in CRC calculations : Yes
Used interface : Native Win32 interface for Win NT & 2000
Gap handling : Appended to previous track

Used output format : User Defined Encoder
Selected bitrate : 128 kBit/s
Quality : High
Add ID3 tag : No
Command line compressor : C:\Program Files (x86)\Exact Audio Copy\Flac\flac.exe
Additional command line options : -V -8 -T "artist=%a" -T "title=%t" -T "album=%g" -T "date=%y" -T "tracknumber=%n" -T "genre=%m" %s

TOC of the extracted CD

Track | Start | Length | Start sector | End sector
---------------------------------------------------------
1 | 0:00.00 | 3:03.59 | 0 | 13783
2 | 3:03.59 | 2:41.27 | 13784 | 25885
3 | 5:45.11 | 3:05.02 | 25886 | 39762
4 | 8:50.13 | 2:32.35 | 39763 | 51197
5 | 11:22.48 | 2:28.38 | 51198 | 62335
6 | 13:51.11 | 4:06.37 | 62336 | 80822
7 | 17:57.48 | 2:24.42 | 80823 | 91664
8 | 20:22.15 | 2:10.48 | 91665 | 101462
9 | 22:32.63 | 0:57.07 | 101463 | 105744
10 | 23:29.70 | 2:25.47 | 105745 | 116666
11 | 25:55.42 | 6:19.03 | 116667 | 145094

Track 1

Filename C:\Users\jordan\Defeater Travels\Defeater - 2008 - Travels\01 - Blessed Burden.wav

Pre-gap length 0:00:02.00

Peak level 100.0 %
Track quality 100.0 %
Test CRC 3F1F4ECF
Copy CRC 3F1F4ECF
Track not present in AccurateRip database
Copy OK

Track 2

Filename C:\Users\jordan\Defeater Travels\Defeater - 2008 - Travels\02 - Everything Went Quiet.wav

Peak level 100.0 %
Track quality 99.9 %
Test CRC 3F4848D4
Copy CRC 3F4848D4
Track not present in AccurateRip database
Copy OK

Track 3

Filename C:\Users\jordan\Defeater Travels\Defeater - 2008 - Travels\03 - Nameless Streets.wav

Peak level 100.0 %
Track quality 100.0 %
Test CRC E53890EF
Copy CRC E53890EF
Track not present in AccurateRip database
Copy OK

Track 4

Filename C:\Users\jordan\Defeater Travels\Defeater - 2008 - Travels\04 - Forgiver Forgetter.wav

Peak level 100.0 %
Track quality 100.0 %
Test CRC A39B8215
Copy CRC A39B8215
Track not present in AccurateRip database
Copy OK

Track 5

Filename C:\Users\jordan\Defeater Travels\Defeater - 2008 - Travels\05 - The City by Dawn.wav

Peak level 100.0 %
Track quality 100.0 %
Test CRC 9B34015B
Copy CRC 9B34015B
Track not present in AccurateRip database
Copy OK

Track 6

Filename C:\Users\jordan\Defeater Travels\Defeater - 2008 - Travels\06 - Prophet in Plain Clothes.wav

Pre-gap length 0:00:48.08

Peak level 100.0 %
Track quality 100.0 %
Test CRC 3E0A3854
Copy CRC 3E0A3854
Track not present in AccurateRip database
Copy OK

Track 7

Filename C:\Users\jordan\Defeater Travels\Defeater - 2008 - Travels\07 - Carrying Weight.wav

Pre-gap length 0:02:09.89

Peak level 100.0 %
Track quality 100.0 %
Test CRC 4AE0991F
Copy CRC 4AE0991F
Track not present in AccurateRip database
Copy OK

Track 8

Filename C:\Users\jordan\Defeater Travels\Defeater - 2008 - Travels\08 - Moon Shine.wav

Peak level 100.0 %
Track quality 100.0 %
Test CRC 0A6554BA
Copy CRC 0A6554BA
Track not present in AccurateRip database
Copy OK

Track 9

Filename C:\Users\jordan\Defeater Travels\Defeater - 2008 - Travels\09 - The Blues.wav

Peak level 100.0 %
Track quality 99.8 %
Test CRC 65510E24
Copy CRC 65510E24
Track not present in AccurateRip database
Copy OK

Track 10

Filename C:\Users\jordan\Defeater Travels\Defeater - 2008 - Travels\10 - Debts.wav

Peak level 100.0 %
Track quality 100.0 %
Test CRC 8D84CD0C
Copy CRC 8D84CD0C
Track not present in AccurateRip database
Copy OK

Track 11

Filename C:\Users\jordan\Defeater Travels\Defeater - 2008 - Travels\11 - Cowardice.wav

Peak level 100.0 %
Track quality 100.0 %
Test CRC E63D2931
Copy CRC E63D2931
Track not present in AccurateRip database
Copy OK

None of the tracks are present in the AccurateRip database

No errors occurred

End of status report

Cue Sheet (.cue):


REM GENRE Hardcore
REM DATE 2008
REM DISCID 88078E0B
REM COMMENT "ExactAudioCopy v0.99pb3"
PERFORMER "Defeater"
TITLE "Travels"
FILE "Defeater - 2008 - Travels\01 - Blessed Burden.wav" WAVE
TRACK 01 AUDIO
TITLE "Blessed Burden"
PERFORMER "Defeater"
INDEX 01 00:00:00
FILE "Defeater - 2008 - Travels\02 - Everything Went Quiet.wav" WAVE
TRACK 02 AUDIO
TITLE "Everything Went Quiet"
PERFORMER "Defeater"
INDEX 01 00:00:00
FILE "Defeater - 2008 - Travels\03 - Nameless Streets.wav" WAVE
TRACK 03 AUDIO
TITLE "Nameless Streets"
PERFORMER "Defeater"
INDEX 01 00:00:00
FILE "Defeater - 2008 - Travels\04 - Forgiver Forgetter.wav" WAVE
TRACK 04 AUDIO
TITLE "Forgiver Forgetter"
PERFORMER "Defeater"
INDEX 01 00:00:00
FILE "Defeater - 2008 - Travels\05 - The City by Dawn.wav" WAVE
TRACK 05 AUDIO
TITLE "The City by Dawn"
PERFORMER "Defeater"
INDEX 01 00:00:00
TRACK 06 AUDIO
TITLE "Prophet in Plain Clothes"
PERFORMER "Defeater"
INDEX 00 01:40:32
FILE "Defeater - 2008 - Travels\06 - Prophet in Plain Clothes.wav" WAVE
INDEX 01 00:00:00
TRACK 07 AUDIO
TITLE "Carrying Weight"
PERFORMER "Defeater"
INDEX 00 01:56:45
FILE "Defeater - 2008 - Travels\07 - Carrying Weight.wav" WAVE
INDEX 01 00:00:00
FILE "Defeater - 2008 - Travels\08 - Moon Shine.wav" WAVE
TRACK 08 AUDIO
TITLE "Moon Shine"
PERFORMER "Defeater"
INDEX 01 00:00:00
FILE "Defeater - 2008 - Travels\09 - The Blues.wav" WAVE
TRACK 09 AUDIO
TITLE "The Blues"
PERFORMER "Defeater"
INDEX 01 00:00:00
FILE "Defeater - 2008 - Travels\10 - Debts.wav" WAVE
TRACK 10 AUDIO
TITLE "Debts"
PERFORMER "Defeater"
INDEX 01 00:00:00
FILE "Defeater - 2008 - Travels\11 - Cowardice.wav" WAVE
TRACK 11 AUDIO
TITLE "Cowardice"
PERFORMER "Defeater"
INDEX 01 00:00:00

Отчёт auCDtect Task manager:


-----------------------

DON'T MODIFY THIS FILE

-----------------------

PERFORMER: auCDtect Task Manager, ver. 1.6.0 RC1 build 1.6.0.1
Copyright (c) 2008-2010 y-soft. All rights reserved
http://y-soft.org

ANALYZER: auCDtect: CD records authenticity detector, version 0.8.2
Copyright (c) 2004 Oleg Berngardt. All rights reserved.
Copyright (c) 2004 Alexander Djourik. All rights reserved.

FILE: 03 - Nameless Streets.flac
Size: 24960472 Hash: 7127CC84C22AE03C15B41961ABE77D10 Accuracy: -m0
Conclusion: CDDA 100%
Signature: C8B84217D0AB95FB32D9270076537657728E8CC9
FILE: 02 - Everything Went Quiet.flac
Size: 21928474 Hash: B09F100384B001B72BC06B7038F54663 Accuracy: -m0
Conclusion: CDDA 100%
Signature: B03DA289DC910D563C59B2DB2469700619AFF428
FILE: 01 - Blessed Burden.flac
Size: 25138166 Hash: 40AB09A1AC1889E5508FCEAD1A559928 Accuracy: -m0
Conclusion: CDDA 100%
Signature: D0DDA9A0416D4303D7F9DED125AF8DB1AFDC82B4
FILE: 11 - Cowardice.flac
Size: 44625530 Hash: 7AC1B1F25DE69FC2AED9A7D1832252C2 Accuracy: -m0
Conclusion: CDDA 100%
Signature: 2555D044C75977B25798CA8414CE3E5CCDADF5EF
FILE: 10 - Debts.flac
Size: 19910151 Hash: 1C1B7C47D4A051F62B387B56D14391F0 Accuracy: -m0
Conclusion: CDDA 100%
Signature: 9DDF62FE6F6CAA63067BEED83439264B27C93820
FILE: 09 - The Blues.flac
Size: 7662007 Hash: D6CDF8E3D9134B2E7222A4D6449ADEAF Accuracy: -m0
Conclusion: CDDA 100%
Signature: E4127C1FBC0D731D712A407F58B46A6E169D662F
FILE: 08 - Moon Shine.flac
Size: 18467316 Hash: 9BE51DEE3D8DAAB3710D8E31CAD850A3 Accuracy: -m0
Conclusion: CDDA 100%
Signature: 9BB3ECA9A48DD6BA72FD748C580D62464D2DAB0C
FILE: 07 - Carrying Weight.flac
Size: 19501908 Hash: 3DA982F91DB1DB18111698D678D007F7 Accuracy: -m0
Conclusion: CDDA 100%
Signature: 6FA043A7F95CEE9FAF1500EC45A287F2D3FEC4CA
FILE: 06 - Prophet in Plain Clothes.flac
Size: 30846469 Hash: CBB6C55604EDD7EDB4D73A8219E2AFE1 Accuracy: -m0
Conclusion: CDDA 100%
Signature: 098C53F615C72E1A3A4E763477C9BBF7F907B301
FILE: 05 - The City by Dawn.flac
Size: 19524829 Hash: 29C87BB66F534872EBA132C860FB22FC Accuracy: -m0
Conclusion: CDDA 100%
Signature: 73860D3CCFFE91D9E65F3E420DC8E555F9DD370C
FILE: 04 - Forgiver Forgetter.flac
Size: 20589132 Hash: 25DF0D986985C46F18EA1950C01E795C Accuracy: -m0
Conclusion: CDDA 99%
Signature: EA87F66C33BF2F28446BAAFDFFAF456F23F02C4F



Поглощение/вытеснение
Только с согласия релизера

Pashketan
Детали торрента:
Название:Defeater - Travels (2008) [FLAC|Lossless|tracks + .cue] <Melodic Hardcore>
Дата добавления:19 Окт 2018 16:17:19
Размер:242 MB
Раздают:
Качают:0
Форум:Alternative, Punk (Lossless)

All rights reserved © 2015-2018