TORRENTS45.XYZ

Скачать Мудрость крокодилов / The Wisdom of Crocodiles (1998) HDRip [H.264]


Мудрость крокодилов / The Wisdom of Crocodiles (1998) HDRip [H.264]«Ему нужна кровь молодых женщин, чтобы жить...»
Производство: Великобритания | Zenith Entertainment, Arts Council of England
Жанр: Триллер, мелодрама, криминал, детектив

Режиссер: По-Чин Леонг
Актеры: Джуд Лоу, Элина Ловенсон, Тимоти Сполл, Джек Девенпорт, Колин Сэлмон, Керри Фокс, Стюарт Боуман, С.Дж. Десембер, Анастасия Хилл, Джозеф О’Конор, Эшли Артус

Описание:
Загадочному и неотразимому Стивену нужна кровь молодых женщин, чтобы жить. В ней он ищет сущность любви, без этого ингредиента он обречен на медленную гибель. Он - современный вампир в бесконечных поисках своей единственной возлюбленной. Юные красавицы бессильны перед его чарами, но Стивену нужна та, кто будет любить его беззаветно и страстно. Когда в жизни Стивена появляется Анна, его чувства впервые находят ответ в ее трепетном сердце, но Анна еще не знает, что своим избранницам в обмен на любовь Стивен может предложить лишь жестокую смерть...


Возраст: 16+ (зрителям, достигшим 16 лет)
Рейтинг MPAA: R (лицам до 17 лет обязательно присутствие взрослого)

Продолжительность: 01:39:15
Качество видео: HDRip
Перевод: Многоголосый закадровый (DVD R5)
Субтитры: Отсутствуют

Видео: AVC/H.264, 784x424 (1.85:1), ~974 kbps, 23.976 fps
Аудио: AC3, 2 ch, 48.0 kHz, 192 kbps CBR

Mediainfo:


General
Unique ID : 60270929737636717258551476585634247254 (0x2D57C2430FBED4D366FC0A59C194B256)
Complete name : D:\Мудрость крокодилов AVC.mkv
Format : Matroska
Format version : Version 4
File size : 828 MiB
Duration : 1 h 39 min
Overall bit rate : 1 167 kb/s
Encoded date : UTC 2018-10-19 08:01:50
Writing application : mkvmerge v23.0.0 ('The Bride Said No') 64-bit
Writing library : libebml v1.3.6 + libmatroska v1.4.9

Video
ID : 1
Format : AVC
Format/Info : Advanced Video Codec
Format profile : High@L4.1
Format settings : CABAC / 12 Ref Frames
Format settings, CABAC : Yes
Format settings, ReFrames : 12 frames
Codec ID : V_MPEG4/ISO/AVC
Duration : 1 h 39 min
Bit rate : 974 kb/s
Width : 784 pixels
Height : 424 pixels
Display aspect ratio : 1.85:1
Frame rate mode : Constant
Frame rate : 23.976 (24000/1001) FPS
Color space : YUV
Chroma subsampling : 4:2:0
Bit depth : 8 bits
Scan type : Progressive
Bits/(Pixel*Frame) : 0.122
Stream size : 691 MiB (83%)
Writing library : x264 core 152 r2851kMod ba24899
Encoding settings : cabac=1 / ref=12 / deblock=1:-2:-2 / analyse=0x3:0x133 / me=umh / subme=10 / psy=1 / fade_compensate=0.00 / psy_rd=1.00:0.12 / mixed_ref=1 / me_range=32 / chroma_me=1 / trellis=2 / 8x8dct=1 / cqm=0 / deadzone=21,11 / fast_pskip=0 / chroma_qp_offset=-3 / threads=6 / lookahead_threads=1 / sliced_threads=0 / nr=0 / decimate=0 / interlaced=0 / bluray_compat=0 / constrained_intra=0 / bframes=11 / b_pyramid=2 / b_adapt=2 / b_bias=0 / direct=3 / weightb=1 / open_gop=0 / weightp=2 / keyint=240 / keyint_min=23 / scenecut=40 / intra_refresh=0 / rc_lookahead=40 / rc=2pass / mbtree=1 / bitrate=974 / ratetol=1.0 / qcomp=0.60 / qpmin=0 / qpmax=69 / qpstep=4 / cplxblur=20.0 / qblur=0.5 / ip_ratio=1.40 / aq=3:1.00
Default : Yes
Forced : No

Audio
ID : 2
Format : AC-3
Format/Info : Audio Coding 3
Commercial name : Dolby Digital
Codec ID : A_AC3
Duration : 1 h 39 min
Bit rate mode : Constant
Bit rate : 192 kb/s
Channel(s) : 2 channels
Channel layout : L R
Sampling rate : 48.0 kHz
Frame rate : 31.250 FPS (1536 SPF)
Bit depth : 16 bits
Compression mode : Lossy
Stream size : 136 MiB (16%)
Language : Russian
Service kind : Complete Main
Default : Yes
Forced : No
Скриншоты:


Все одноименные релизы в Клубе

Смотреть Online


Детали торрента:
Название:Мудрость крокодилов / The Wisdom of Crocodiles (1998) HDRip [H.264]
Дата добавления:19 Окт 2018 12:04:09
Размер:828 MB
Раздают:5
Качают:0
Форум:Зарубежные Фильмы (HD*Rip/LQ, DVDRip, SATRip, VHSRip)

All rights reserved © 2015-2019