TORRENTS45.XYZ

Скачать Русалка (2007) DVDRip [H.264]


Русалка (2007) DVDRip [H.264]«Невероятные приключения русалки на земле»
Производство: Россия, Централ Партнершип, Магнум-Фильм
Жанр: Драма, Комедия, Фэнтези

Режиссер: Анна Меликян
Продюсер: Рубен Дишдишян, Бохдан Грачик
Актеры: Мария Шалаева, Евгений Цыганов, Мария Сокова, Анастасия Донцова, Вероника Скугина, Наталья Рычкова, Ирина Скриниченко, Игорь Яцко, Нана Кикнадзе, Артур Смольянинов ...

Описание:
Алиса — хроническая неудачница. Но в одном ей сказочно повезло — Алиса умеет говорить с морем и обладает даром влиять на происходящие в мире события. Достигнув 18-летия, Алиса решает попытать счастья в Москве. В столице Алису поджидают новые неприятности и первая в жизни влюбленность… без взаимности.
Могут ли волшебные способности Алисы помочь ей завладеть сердцем Саши, или она вновь потерпит неудачу? Сгоряча пожелав Саше смерти, Алиса осознает, что ее воля будет исполнена. Теперь Алиса готова на все, чтобы спасти Сашу, даже ценой собственной жизни.


Возраст: 18+ (зрителям, достигшим 18 лет. запрещено для детей)
Премьера (мир): 22 января 2008, ...
Премьера (РФ): 22 ноября 2007, «Централ Партнершип»
Дата выхода DVD релиза: 20 декабря 2007, «CP-Digital», ...


Релиз от: torrents45.xyz />Продолжительность: 01:54:22
Качество видео: DVDRip
Перевод: Не требуется (Русский)
Субтитры: Отсутствуют
Разбиение по главам: Присутствуют чаптеры с DVD.

Видео: AVC/H264, 720x552@1050x552 (1.902), 25.000 fps, 1 534 Kbps
Аудио #1: DTS, 48.0 KHz, 6 ch, 755 Kbps (Русский)
Аудио #2: AC-3, 48.0 KHz, 6 ch, 448 Kbps (Русский)

Mediainfo:

General
Unique ID : 161390577135400832183981109797597446493 (0x796AB1CC5EEB85D98974C25A03EF815D)
Complete name : Rusalka.2007.DVDRip.H264.torrents45.xyzv
Format : Matroska
Format version : Version 4
File size : 2.19 GiB
Duration : 1 h 54 min
Overall bit rate : 2 739 kb/s
Encoded date : UTC 2018-10-18 23:21:20
Writing application : mkvmerge v27.0.0 ('Metropolis') 64-bit
Writing library : libebml v1.3.6 + libmatroska v1.4.9

Video
ID : 1
Format : AVC
Format/Info : Advanced Video Codec
Format profile : High@L4.1
Format settings : CABAC / 7 Ref Frames
Format settings, CABAC : Yes
Format settings, ReFrames : 7 frames
Codec ID : V_MPEG4/ISO/AVC
Duration : 1 h 54 min
Bit rate : 1 534 kb/s
Width : 720 pixels
Height : 552 pixels
Display aspect ratio : 1.902
Original display aspect rat : 1.903
Frame rate mode : Constant
Frame rate : 25.000 FPS
Color space : YUV
Chroma subsampling : 4:2:0
Bit depth : 8 bits
Scan type : Progressive
Bits/(Pixel*Frame) : 0.154
Stream size : 1.23 GiB (56%)
Title : Rusalka.2007.DVDRip.H264.torrents45.xyz />Writing library : x264 core 157 r2935 545de2f
Encoding settings : cabac=1 / ref=7 / deblock=1:-3:-3 / analyse=0x3:0x133 / me=umh / subme=9 / psy=1 / psy_rd=1.00:0.00 / mixed_ref=1 / me_range=24 / chroma_me=1 / trellis=2 / 8x8dct=1 / cqm=0 / deadzone=21,11 / fast_pskip=0 / chroma_qp_offset=-2 / threads=3 / lookahead_threads=1 / sliced_threads=0 / slices=4 / nr=0 / decimate=1 / interlaced=0 / bluray_compat=0 / constrained_intra=0 / bframes=11 / b_pyramid=2 / b_adapt=2 / b_bias=0 / direct=1 / weightb=1 / open_gop=0 / weightp=2 / keyint=250 / keyint_min=25 / scenecut=40 / intra_refresh=0 / rc_lookahead=40 / rc=2pass / mbtree=1 / bitrate=1534 / ratetol=1.0 / qcomp=0.60 / qpmin=0 / qpmax=69 / qpstep=4 / cplxblur=20.0 / qblur=0.5 / vbv_maxrate=62500 / vbv_bufsize=78125 / nal_hrd=none / filler=0 / ip_ratio=1.40 / aq=1:1.00
Language : Russian
Default : Yes
Forced : No

Audio #1
ID : 2
Format : DTS
Format/Info : Digital Theater Systems
Codec ID : A_DTS
Duration : 1 h 54 min
Bit rate mode : Constant
Bit rate : 755 kb/s
Channel(s) : 6 channels
Channel layout : C L R Ls Rs LFE
Sampling rate : 48.0 kHz
Frame rate : 93.750 FPS (512 SPF)
Bit depth : 24 bits
Compression mode : Lossy
Stream size : 617 MiB (28%)
Language : Russian
Default : No
Forced : No

Audio #2
ID : 3
Format : AC-3
Format/Info : Audio Coding 3
Commercial name : Dolby Digital
Codec ID : A_AC3
Duration : 1 h 54 min
Bit rate mode : Constant
Bit rate : 448 kb/s
Channel(s) : 6 channels
Channel layout : L R C LFE Ls Rs
Sampling rate : 48.0 kHz
Frame rate : 31.250 FPS (1536 SPF)
Bit depth : 16 bits
Compression mode : Lossy
Stream size : 366 MiB (16%)
Language : Russian
Service kind : Complete Main
Default : No
Forced : No

Menu
00:00:00.000 : :Chapter 01
00:04:52.800 : :Chapter 02
00:08:16.800 : :Chapter 03
00:18:42.000 : :Chapter 04
00:22:48.600 : :Chapter 05
00:28:35.400 : :Chapter 06
00:34:10.200 : :Chapter 07
00:41:30.000 : :Chapter 08
00:51:45.000 : :Chapter 09
01:04:18.600 : :Chapter 10
01:11:39.600 : :Chapter 11
01:15:33.000 : :Chapter 12
01:20:04.800 : :Chapter 13
01:37:37.800 : :Chapter 14
01:51:41.400 : :Chapter 15
01:54:21.000 : :Chapter 16

Знаете ли вы, что...

На момент съемок Мария Шалаева была на восемь лет старше своей героини.
Сценарий фильма писался специально для актрисы Марии Шалаевой.
Для съёмок фильма Анна Меликян основала собственную кампанию «Магнум», во время съёмок, кроме работы режиссёра, ей приходилось выполнять также и административные функции.
Съёмки фильма были отложены на полгода из-за недостатка финансирования и превышения сметы. Во время активной фазы съёмок главный режиссёр фильма Анна Меликян была беременна, что создавало ей трудности в работе.
Бюджет фильма, по словам режиссёра, составил около 2 млн долларов, самой дорогой сценой стали съёмки прыжков героев Маши Шалаевой и Евгения Цыганова с Крымского моста, они обошлись в 30 тысяч долларов.

Награды
Фильм получил следующие награды (на ноябрь 2008 года):
*главный приз 5-го международного кинофестиваля «Золотой абрикос» в Ереване;
*премия за лучшую режиссуру на фестивале независимого кино Сандэнс в Парк Сити — январь 2008;
*приз кинокритиков ФИПРЕССИ в программе «Панорама» 58-го Берлинского кинофестиваля;
*премия Чешского телевидения «Независимая видеокамера» на 43-м международном кинофестивале в Карловых Варах;
*на XII международном кинофестивале в Софии картина была признана «Лучшим фильмом»;
*лучшая женская роль, приз от мэра города Сочи на Открытом российском кинофестивале «Кинотавр»;
*лучшая картина, по мнению критиков и зрителей Международного кинофестиваля в Паличе (Сербия)
*Мария Шалаева получила премию «Ника» за лучшую женскую роль.
Скриншоты:

Дополнительные скриншоты:





Все одноименные релизы в Клубе

Смотреть Online

Детали торрента:
Название:Русалка (2007) DVDRip [H.264]
Дата добавления:19 Окт 2018 03:44:48
Размер:2,19 GB
Раздают:6
Качают:0
Форум:Отечественные Фильмы (HD*Rip/LQ, DVDRip, SATRip, VHSRip)

All rights reserved © 2015-2019