TORRENTS45.XYZ

Скачать Человек-муравей и Оса / Ant-Man and the Wasp (2018) BDRip 3D [H.264/1080p] [Вертикальная анаморфная стереопара] [handmade 16:9]


Человек-муравей и Оса / Ant-Man and the Wasp (2018) BDRip 3D [H.264/1080p] [Вертикальная анаморфная стереопара] [handmade 16:9] «Real heroes. Not actual size»
Производство: США / Marvel Studios Inc.
Жанр: фантастика, боевик, приключения

Режиссер: Пейтон Рид
Продюсер: Виктория Алонсо, Митчелл Белл, Стивен Бруссар
Актеры: Пол Радд, Эванджелин Лилли, Майкл Пенья, Уолтон Гоггинс, Бобби Каннавейл, Джуди Грир, Ти Ай, Давид Дастмалчян, Ханна Джон-Кэймен, Эбби Райдер Фортсон

Описание:
Скотт Лэнг, известный также как Человек-муравей, уже заслужил право оказаться в команде Мстителей. Но желание быть ближе к дочери удерживает его в родном Сан-Франциско — до тех пор, пока доктор Хэнк Пим, создавший когда-то изменяющий размеры своего владельца чудо-костюм, не призывает Скотта присоединиться к новой опасной миссии. А помогать в противостоянии с коварным врагом Человеку-муравью будет новая напарница — Оса.


Возраст: 12+ (зрителям, достигшим 12 лет)
Рейтинг MPAA: PG-13 (детям до 13 лет просмотр нежелателен)
Премьера (мир): 25 июня 2018
Премьера (РФ): 5 июля 2018, «WDSSPR» 3D


Продолжительность: 01:58:06
Качество: BDRip 3D
Перевод: Дублированный (iTunes)
Субтитры: Русские (Forced, Full), Английские (Full)

Видео: H.264/AVC, 1920x1080, ~10000 kbps
Аудио #1: AC3, 6 ch, 384 kbps - Русский
Аудио #2: AC3, 6 ch, 640 kbps - Английский

MediaInfo:

General
Unique ID : 207813879270594660347557729191668975670 (0x9C577F4EB3C76E63BAB87F0489578836)
Complete name : D:\Temp\3D - Человек Муравей и Оса FS.mkv
Format : Matroska
Format version : Version 4 / Version 2
File size : 9.10 GiB
Duration : 1h 58mn
Overall bit rate : 11.0 Mbps
Movie name : ANTMAN_WASP_2018_3D_RMX.Title0
Encoded date : UTC 2018-10-18 00:28:50
Writing application : mkvmerge v9.8.0 ('Kuglblids') 64bit
Writing library : Lavf57.71.100

Video
ID : 1
Format : AVC
Format/Info : Advanced Video Codec
Format profile : High@L4.1
Format settings, CABAC : Yes
Format settings, ReFrames : 4 frames
Codec ID : V_MPEG4/ISO/AVC
Duration : 1h 58mn
Bit rate : 10 000 Kbps
Width : 1 920 pixels
Height : 1 080 pixels
Display aspect ratio : 16:9
Frame rate mode : Constant
Frame rate : 23.976 fps
Color space : YUV
Chroma subsampling : 4:2:0
Bit depth : 8 bits
Scan type : Progressive
Bits/(Pixel*Frame) : 0.201
Stream size : 8.07 GiB (89%)
Writing library : x264 core 155 r2901M 7d0ff22
Encoding settings : cabac=1 / ref=4 / deblock=1:-3:-3 / analyse=0x3:0x113 / me=umh / subme=10 / psy=1 / psy_rd=1.05:0.10 / mixed_ref=1 / me_range=24 / chroma_me=1 / trellis=2 / 8x8dct=1 / cqm=0 / deadzone=21,11 / fast_pskip=0 / chroma_qp_offset=-3 / threads=5 / lookahead_threads=1 / sliced_threads=0 / nr=0 / decimate=1 / interlaced=0 / bluray_compat=0 / constrained_intra=0 / bframes=6 / b_pyramid=2 / b_adapt=2 / b_bias=0 / direct=1 / weightb=1 / open_gop=0 / weightp=2 / keyint=240 / keyint_min=24 / scenecut=40 / intra_refresh=0 / rc=2pass / mbtree=0 / bitrate=10000 / ratetol=1.0 / qcomp=0.70 / qpmin=3 / qpmax=69 / qpstep=4 / cplxblur=20.0 / qblur=0.5 / ip_ratio=1.40 / pb_ratio=1.30 / aq=2:1.00
Default : Yes
Forced : No

Audio #1
ID : 2
Format : AC-3
Format/Info : Audio Coding 3
Mode extension : CM (complete main)
Format settings, Endianness : Big
Codec ID : A_AC3
Duration : 1h 58mn
Bit rate mode : Constant
Bit rate : 384 Kbps
Channel(s) : 6 channels
Channel positions : Front: L C R, Side: L R, LFE
Sampling rate : 48.0 KHz
Bit depth : 16 bits
Compression mode : Lossy
Stream size : 326 MiB (3%)
Language : Russian
Default : Yes
Forced : No

Audio #2
ID : 3
Format : AC-3
Format/Info : Audio Coding 3
Mode extension : CM (complete main)
Format settings, Endianness : Big
Codec ID : A_AC3
Duration : 1h 58mn
Bit rate mode : Constant
Bit rate : 640 Kbps
Channel(s) : 6 channels
Channel positions : Front: L C R, Side: L R, LFE
Sampling rate : 48.0 KHz
Bit depth : 16 bits
Compression mode : Lossy
Stream size : 543 MiB (6%)
Language : English
Default : No
Forced : No

Text #1
ID : 4
Format : UTF-8
Codec ID : S_TEXT/UTF8
Codec ID/Info : UTF-8 Plain Text
Language : Russian
Default : Yes
Forced : No

Text #2
ID : 5
Format : UTF-8
Codec ID : S_TEXT/UTF8
Codec ID/Info : UTF-8 Plain Text
Language : Russian
Default : No
Forced : No

Text #3
ID : 6
Format : UTF-8
Codec ID : S_TEXT/UTF8
Codec ID/Info : UTF-8 Plain Text
Language : English
Default : No
Forced : No
Скриншоты:


Релизы фильма "Человек-муравей и Оса / Ant-Man and the Wasp" на NNM Club

Смотреть Online

http://37.220.36.15/video/59743a1ef1f4a092/iframe
Детали торрента:
Название:Человек-муравей и Оса / Ant-Man and the Wasp (2018) BDRip 3D [H.264/1080p] [Вертикальная анаморфная стереопара] [handmade 16:9]
Дата добавления:18 Окт 2018 18:17:34
Размер:9,1 GB
Раздают:19
Качают:11
Форум:hand made * video

All rights reserved © 2015-2018