TORRENTS45.XYZ

Скачать Bonniwell Music Machine - Ignition (2000) [FLAC|Lossless|tracks + .cue] <Psychedelic Rock, Garage Rock>


Bonniwell Music Machine - Ignition (2000)
Жанр: Psychedelic Rock, Garage Rock
Издание: Sundazed Music - SC 11038
Источник: Trovador
Продолжительность: 00:46:46

Кодек: FLAC
Битрейт: Lossless
Тип рипа: tracks + .cue

Треклист:
1. Everything Is Everything 1:52 (1968)
2. Two Much 2:03 (1965)
3. Advise and Consent 2:59 (1967)
4. This Should Make You Happy 1:53 (1968)
5. Black Snow 2:31 (1968)
6. Chances 3:08 (1965)
7. Mother Nature, - Father Earth 2:15 (1968)
8. Talk Me Down 1:49 (1965)
9. Dark White 4:13 (1969)
10. Push Don't Pull 2:15 (1965)
11. Smoke and Water 3:19 (1966)
12. King Mixer 2:44 (1969)

Продолжение треклиста:

13. Unca Tinka Ty 2:04 (1967)
14. Citizen Fear 2:29 (1969)
15. Worry (instrumental) 2:11 (1967)
16. Worry (vocal) 2:16 (1967)
17. Tell Me What Ya Got 2:07 (1968)
18. Point of No Return 2:41 (1966)
19. 902 1:57 (1969)

Дополнительная информация:

Состав:
«The Ragamuffins» (1965-1966)
Sean Bonniwell — rhythm guitar, vocals
Ron Edgar — drums
Keith Olsen — bass, vocals
«The Music Machine» (1966-1967)
Sean Bonniwell — rhythm guitar, vocals, horn
Keith Olsen — bass, vocals, fuzz-designer
Mark Landon — lead guitar
Ron Edgar — drums
Doug Rhodes — organ, tambourine, bass, flute, vocals, horn
Paul Buff — 10-track recorder, whirling-head echo-machine, engineering, devices
«The Bonniwell Music Machine» (1967-1968)
Sean Bonniwell — rhythm guitar, vocals
Guile Wisdom — lead guitar
Jerry Harris — drums
Harry Garfield — organ
Eddie Jones — bass
Additional musicians (1969)
Joe Broely
Fred Thomas
Holly McKinley

Отчёт EAC:

Exact Audio Copy V1.0 beta 1 from 15. November 2010

EAC extraction logfile from 23. November 2013, 16:22

Bonniwell Music Machine / Ignition

Used drive : Optiarc DVD RW AD-7240S Adapter: 2 ID: 1

Read mode : Secure
Utilize accurate stream : Yes
Defeat audio cache : Yes
Make use of C2 pointers : No

Read offset correction : 48
Overread into Lead-In and Lead-Out : No
Fill up missing offset samples with silence : Yes
Delete leading and trailing silent blocks : No
Null samples used in CRC calculations : Yes
Used interface : Native Win32 interface for Win NT & 2000
Gap handling : Appended to previous track

Used output format : User Defined Encoder
Selected bitrate : 32 kBit/s
Quality : High
Add ID3 tag : No
Command line compressor : C:\Program Files (x86)\Exact Audio Copy New\FLAC\FLAC.EXE
Additional command line options : -8 -V -T "ARTIST=%a" -T "TITLE=%t" -T "ALBUM=%g" -T "DATE=%y" -T "TRACKNUMBER=%n" -T "GENRE=%m" -T "COMMENT=EAC" %s

TOC of the extracted CD

Track | Start | Length | Start sector | End sector
---------------------------------------------------------
1 | 0:00.00 | 1:52.05 | 0 | 8404
2 | 1:52.05 | 2:02.67 | 8405 | 17621
3 | 3:54.72 | 2:58.55 | 17622 | 31026
4 | 6:53.52 | 1:53.15 | 31027 | 39516
5 | 8:46.67 | 2:30.53 | 39517 | 50819
6 | 11:17.45 | 3:07.52 | 50820 | 64896
7 | 14:25.22 | 2:14.65 | 64897 | 75011
8 | 16:40.12 | 1:48.38 | 75012 | 83149
9 | 18:28.50 | 4:13.07 | 83150 | 102131
10 | 22:41.57 | 2:15.30 | 102132 | 112286
11 | 24:57.12 | 3:19.23 | 112287 | 127234
12 | 28:16.35 | 2:43.40 | 127235 | 139499
13 | 31:00.00 | 2:04.00 | 139500 | 148799
14 | 33:04.00 | 2:28.72 | 148800 | 159971
15 | 35:32.72 | 2:11.05 | 159972 | 169801
16 | 37:44.02 | 2:15.53 | 169802 | 179979
17 | 39:59.55 | 2:06.65 | 179980 | 189494
18 | 42:06.45 | 2:40.67 | 189495 | 201561
19 | 44:47.37 | 1:57.28 | 201562 | 210364

Track 1

Filename C:\Lossless\Bonniwell Music Machine - Ignition (2000) [FLAC]\01 - Everything Is Everything.wav

Pre-gap length 0:00:02.00

Peak level 98.8 %
Extraction speed 1.9 X
Track quality 100.0 %
Test CRC C2B1186B
Copy CRC C2B1186B
Accurately ripped (confidence 1) [FCA66498]
Copy OK

Track 2

Filename C:\Lossless\Bonniwell Music Machine - Ignition (2000) [FLAC]\02 - Two Much.wav

Pre-gap length 0:00:01.55

Peak level 97.7 %
Extraction speed 2.0 X
Track quality 100.0 %
Test CRC 532BE9B8
Copy CRC 532BE9B8
Accurately ripped (confidence 1) [27DC5E65]
Copy OK

Track 3

Filename C:\Lossless\Bonniwell Music Machine - Ignition (2000) [FLAC]\03 - Advise and Consent.wav

Pre-gap length 0:00:02.52

Peak level 98.8 %
Extraction speed 2.4 X
Track quality 100.0 %
Test CRC 8E597442
Copy CRC 8E597442
Accurately ripped (confidence 1) [3A30AD31]
Copy OK

Track 4

Filename C:\Lossless\Bonniwell Music Machine - Ignition (2000) [FLAC]\04 - This Should Make You Happy.wav

Pre-gap length 0:00:02.57

Peak level 98.8 %
Extraction speed 1.8 X
Track quality 99.9 %
Test CRC 2D67395C
Copy CRC 2D67395C
Accurately ripped (confidence 1) [E8D099E7]
Copy OK

Track 5

Filename C:\Lossless\Bonniwell Music Machine - Ignition (2000) [FLAC]\05 - Black Snow.wav

Pre-gap length 0:00:02.57

Peak level 98.8 %
Extraction speed 2.5 X
Track quality 100.0 %
Test CRC FAF14102
Copy CRC FAF14102
Accurately ripped (confidence 1) [319D6474]
Copy OK

Track 6

Filename C:\Lossless\Bonniwell Music Machine - Ignition (2000) [FLAC]\06 - Chances.wav

Peak level 72.0 %
Extraction speed 2.8 X
Track quality 100.0 %
Test CRC 2581A31C
Copy CRC 2581A31C
Accurately ripped (confidence 1) [8523495A]
Copy OK

Track 7

Filename C:\Lossless\Bonniwell Music Machine - Ignition (2000) [FLAC]\07 - Mother Nature, Father Earth.wav

Pre-gap length 0:00:02.55

Peak level 98.8 %
Extraction speed 2.7 X
Track quality 100.0 %
Test CRC B9B1030E
Copy CRC B9B1030E
Accurately ripped (confidence 1) [32501345]
Copy OK

Track 8

Filename C:\Lossless\Bonniwell Music Machine - Ignition (2000) [FLAC]\08 - Talk Me Down.wav

Pre-gap length 0:00:01.55

Peak level 90.1 %
Extraction speed 2.6 X
Track quality 100.0 %
Test CRC 61692072
Copy CRC 61692072
Accurately ripped (confidence 1) [0458203F]
Copy OK

Track 9

Filename C:\Lossless\Bonniwell Music Machine - Ignition (2000) [FLAC]\09 - Dark White.wav

Pre-gap length 0:00:02.53

Peak level 98.8 %
Extraction speed 3.3 X
Track quality 100.0 %
Test CRC D9F33E70
Copy CRC D9F33E70
Accurately ripped (confidence 1) [4195F91B]
Copy OK

Track 10

Filename C:\Lossless\Bonniwell Music Machine - Ignition (2000) [FLAC]\10 - Push Dont Pull.wav

Pre-gap length 0:00:01.55

Peak level 86.4 %
Extraction speed 3.0 X
Track quality 100.0 %
Test CRC 2AFD844D
Copy CRC 2AFD844D
Accurately ripped (confidence 1) [A6770B88]
Copy OK

Track 11

Filename C:\Lossless\Bonniwell Music Machine - Ignition (2000) [FLAC]\11 - Smoke and Water.wav

Pre-gap length 0:00:01.52

Peak level 98.8 %
Extraction speed 3.4 X
Track quality 100.0 %
Test CRC DE58E88E
Copy CRC DE58E88E
Accurately ripped (confidence 1) [D2128C0A]
Copy OK

Track 12

Filename C:\Lossless\Bonniwell Music Machine - Ignition (2000) [FLAC]\12 - King Mixer.wav

Pre-gap length 0:00:02.55

Peak level 98.8 %
Extraction speed 3.4 X
Track quality 100.0 %
Test CRC 680E9F4B
Copy CRC 680E9F4B
Accurately ripped (confidence 1) [6A7997CF]
Copy OK

Track 13

Filename C:\Lossless\Bonniwell Music Machine - Ignition (2000) [FLAC]\13 - Unca Tinka Ty.wav

Pre-gap length 0:00:02.58

Peak level 98.8 %
Extraction speed 3.3 X
Track quality 100.0 %
Test CRC 59D31102
Copy CRC 59D31102
Accurately ripped (confidence 1) [12D61AB6]
Copy OK

Track 14

Filename C:\Lossless\Bonniwell Music Machine - Ignition (2000) [FLAC]\14 - Citizen Fear.wav

Pre-gap length 0:00:01.58

Peak level 98.8 %
Extraction speed 3.5 X
Track quality 100.0 %
Test CRC FFCAA778
Copy CRC FFCAA778
Accurately ripped (confidence 1) [F8B2A643]
Copy OK

Track 15

Filename C:\Lossless\Bonniwell Music Machine - Ignition (2000) [FLAC]\15 - Worry (instrumental).wav

Pre-gap length 0:00:02.57

Peak level 98.8 %
Extraction speed 3.5 X
Track quality 100.0 %
Test CRC A62DAD7D
Copy CRC A62DAD7D
Accurately ripped (confidence 1) [817BE22E]
Copy OK

Track 16

Filename C:\Lossless\Bonniwell Music Machine - Ignition (2000) [FLAC]\16 - Worry (vocal).wav

Peak level 98.8 %
Extraction speed 3.6 X
Track quality 100.0 %
Test CRC 0FABC225
Copy CRC 0FABC225
Accurately ripped (confidence 1) [8BC073A2]
Copy OK

Track 17

Filename C:\Lossless\Bonniwell Music Machine - Ignition (2000) [FLAC]\17 - Tell Me What Ya Got.wav

Pre-gap length 0:00:02.13

Peak level 98.8 %
Extraction speed 3.6 X
Track quality 100.0 %
Test CRC 0595589C
Copy CRC 0595589C
Accurately ripped (confidence 1) [62C7AC73]
Copy OK

Track 18

Filename C:\Lossless\Bonniwell Music Machine - Ignition (2000) [FLAC]\18 - Point of No Return.wav

Pre-gap length 0:00:02.58

Peak level 98.8 %
Extraction speed 3.8 X
Track quality 100.0 %
Test CRC 415E49CB
Copy CRC 415E49CB
Accurately ripped (confidence 1) [F2FB697A]
Copy OK

Track 19

Filename C:\Lossless\Bonniwell Music Machine - Ignition (2000) [FLAC]\19 - 902.wav

Pre-gap length 0:00:02.55

Peak level 98.8 %
Extraction speed 3.7 X
Track quality 100.0 %
Test CRC 9DE1EEF2
Copy CRC 9DE1EEF2
Accurately ripped (confidence 1) [81091398]
Copy OK

All tracks accurately ripped

No errors occurred

End of status report

==== Log checksum D53A047D6DE22439E4EC2D939CFD6F37C4A7A9EBBC5677B0CC320C304F49AC67 ====

Cue Sheet (.cue):


REM GENRE "Psychedelic Rock / Garage Rock"
REM DATE 2000
REM DISCID 0E0AF413
REM COMMENT "ExactAudioCopy v1.0b1"
PERFORMER "Bonniwell Music Machine"
TITLE "Ignition"
FILE "01 - Everything Is Everything.wav" WAVE
TRACK 01 AUDIO
TITLE "Everything Is Everything"
PERFORMER "Bonniwell Music Machine"
INDEX 01 00:00:00
TRACK 02 AUDIO
TITLE "Two Much"
PERFORMER "Bonniwell Music Machine"
INDEX 00 01:50:25
FILE "02 - Two Much.wav" WAVE
INDEX 01 00:00:00
TRACK 03 AUDIO
TITLE "Advise and Consent"
PERFORMER "Bonniwell Music Machine"
INDEX 00 02:00:15
FILE "03 - Advise and Consent.wav" WAVE
INDEX 01 00:00:00
TRACK 04 AUDIO
TITLE "This Should Make You Happy"
PERFORMER "Bonniwell Music Machine"
INDEX 00 02:55:73
FILE "04 - This Should Make You Happy.wav" WAVE
INDEX 01 00:00:00
TRACK 05 AUDIO
TITLE "Black Snow"
PERFORMER "Bonniwell Music Machine"
INDEX 00 01:50:33
FILE "05 - Black Snow.wav" WAVE
INDEX 01 00:00:00
FILE "06 - Chances.wav" WAVE
TRACK 06 AUDIO
TITLE "Chances"
PERFORMER "Bonniwell Music Machine"
INDEX 01 00:00:00
TRACK 07 AUDIO
TITLE "Mother Nature, - Father Earth"
PERFORMER "Bonniwell Music Machine"
INDEX 00 03:04:72
FILE "07 - Mother Nature, Father Earth.wav" WAVE
INDEX 01 00:00:00
TRACK 08 AUDIO
TITLE "Talk Me Down"
PERFORMER "Bonniwell Music Machine"
INDEX 00 02:13:10
FILE "08 - Talk Me Down.wav" WAVE
INDEX 01 00:00:00
TRACK 09 AUDIO
TITLE "Dark White"
PERFORMER "Bonniwell Music Machine"
INDEX 00 01:45:60
FILE "09 - Dark White.wav" WAVE
INDEX 01 00:00:00
TRACK 10 AUDIO
TITLE "Push Don't Pull"
PERFORMER "Bonniwell Music Machine"
INDEX 00 04:11:27
FILE "10 - Push Dont Pull.wav" WAVE
INDEX 01 00:00:00
TRACK 11 AUDIO
TITLE "Smoke and Water"
PERFORMER "Bonniwell Music Machine"
INDEX 00 02:13:53
FILE "11 - Smoke and Water.wav" WAVE
INDEX 01 00:00:00
TRACK 12 AUDIO
TITLE "King Mixer"
PERFORMER "Bonniwell Music Machine"
INDEX 00 03:16:43
FILE "12 - King Mixer.wav" WAVE
INDEX 01 00:00:00
TRACK 13 AUDIO
TITLE "Unca Tinka Ty"
PERFORMER "Bonniwell Music Machine"
INDEX 00 02:40:57
FILE "13 - Unca Tinka Ty.wav" WAVE
INDEX 01 00:00:00
TRACK 14 AUDIO
TITLE "Citizen Fear"
PERFORMER "Bonniwell Music Machine"
INDEX 00 02:02:17
FILE "14 - Citizen Fear.wav" WAVE
INDEX 01 00:00:00
TRACK 15 AUDIO
TITLE "Worry (instrumental)"
PERFORMER "Bonniwell Music Machine"
INDEX 00 02:26:15
FILE "15 - Worry (instrumental).wav" WAVE
INDEX 01 00:00:00
FILE "16 - Worry (vocal).wav" WAVE
TRACK 16 AUDIO
TITLE "Worry (vocal)"
PERFORMER "Bonniwell Music Machine"
INDEX 01 00:00:00
TRACK 17 AUDIO
TITLE "Tell Me What Ya Got"
PERFORMER "Bonniwell Music Machine"
INDEX 00 02:13:40
FILE "17 - Tell Me What Ya Got.wav" WAVE
INDEX 01 00:00:00
TRACK 18 AUDIO
TITLE "Point of No Return"
PERFORMER "Bonniwell Music Machine"
INDEX 00 02:04:07
FILE "18 - Point of No Return.wav" WAVE
INDEX 01 00:00:00
TRACK 19 AUDIO
TITLE "902"
PERFORMER "Bonniwell Music Machine"
INDEX 00 02:38:12
FILE "19 - 902.wav" WAVE
INDEX 01 00:00:00

Отчёт auCDtect Task manager:


-----------------------

DON'T MODIFY THIS FILE

-----------------------

PERFORMER: auCDtect Task Manager, ver. 1.6.0 RC1 build 1.6.0.1
Copyright (c) 2008-2010 y-soft. All rights reserved
http://y-soft.org

ANALYZER: auCDtect: CD records authenticity detector, version 0.8.2
Copyright (c) 2004 Oleg Berngardt. All rights reserved.
Copyright (c) 2004 Alexander Djourik. All rights reserved.

FILE: 19 - 902.flac
Size: 6603834 Hash: 5513A2022D72D90E398A4FAA6D99CBAA Accuracy: -m0
Conclusion: CDDA 100%
Signature: EAC7C63BF1DA7257C8323464638569C25C1C36AA
FILE: 18 - Point of No Return.flac
Size: 8883306 Hash: 00C8290283B742B794A86886FCF3D60C Accuracy: -m0
Conclusion: CDDA 100%
Signature: 7688240618F702E4C08A95A5DF21ECB73E894395
FILE: 17 - Tell Me What Ya Got.flac
Size: 7252284 Hash: 5B9846361AFC100E59E02F5CE2ACFC45 Accuracy: -m0
Conclusion: CDDA 100%
Signature: D6D490A0D3B4E4CB5FEB9A7959643BF5C6C5B2BC
FILE: 16 - Worry (vocal).flac
Size: 7693903 Hash: D8808DA58D8E9AD237F7CA9EFB287C2B Accuracy: -m0
Conclusion: CDDA 100%
Signature: 604DB329688FD05218340FD5819624244285B5F1
FILE: 15 - Worry (instrumental).flac
Size: 7437581 Hash: B7D83063D3866229A0304C150F608EB5 Accuracy: -m0
Conclusion: CDDA 49%
Signature: C5DCFA75BC14481EC866C5870D8C52AFD5BAB458
FILE: 14 - Citizen Fear.flac
Size: 8698046 Hash: 354982214C7DDDF388B389CB7DC12085 Accuracy: -m0
Conclusion: CDDA 100%
Signature: D72C9FAC07B2854E64486E39206F0C461E60D384
FILE: 13 - Unca Tinka Ty.flac
Size: 7004302 Hash: 4D76AD329D896C7D52EB73E60F9D1F5B Accuracy: -m0
Conclusion: CDDA 100%
Signature: 26559BD891954B308C4994904374D0EF3BC92191
FILE: 12 - King Mixer.flac
Size: 9479118 Hash: 7DAB7DDC2C8A2B11005130BD4CE5BDE0 Accuracy: -m0
Conclusion: CDDA 100%
Signature: E9A346BEC3A6F1C7DE7BD665A0C4022365D7FB70
FILE: 11 - Smoke and Water.flac
Size: 11084831 Hash: D50E153563AEE7E0960D62C3D26BD945 Accuracy: -m0
Conclusion: CDDA 99%
Signature: 88D39A3E78B996F9B2561739B906AD2770C7F8D8
FILE: 10 - Push Dont Pull.flac
Size: 7205589 Hash: 9C0D49326EF1E29B4EFD1D8657A94DDC Accuracy: -m0
Conclusion: CDDA 100%
Signature: D5DB9E6E9E147436C24D15AB13266CB6D7C61CE2
FILE: 09 - Dark White.flac
Size: 13987850 Hash: 52DE76B221C8710C293F6A0BE17E1962 Accuracy: -m0
Conclusion: CDDA 100%
Signature: 7C65A815DB7F4F10BF899F2CA8F920FF5ADDB6CF
FILE: 08 - Talk Me Down.flac
Size: 6342648 Hash: 8773DD21B42521A3C26D380C258362E9 Accuracy: -m0
Conclusion: CDDA 100%
Signature: D1746EC0418E76DA73ACA3651E4B1DE28FA91CE7
FILE: 07 - Mother Nature, Father Earth.flac
Size: 7890659 Hash: 59002CEE7F85B96E289277EBA528D002 Accuracy: -m0
Conclusion: CDDA 100%
Signature: AA5CFFD1373203DCCE75BAA9F10AD60A169640D5
FILE: 06 - Chances.flac
Size: 10499604 Hash: 2F44BC45D8DCD3BEAA5B9632D6969FA5 Accuracy: -m0
Conclusion: CDDA 100%
Signature: BE07237D53EDC48B975C65320E86B175CFFA8E46
FILE: 05 - Black Snow.flac
Size: 8790994 Hash: C5D6210B94382F9025B90D54CDD967ED Accuracy: -m0
Conclusion: CDDA 100%
Signature: AABD1AF94CFCC3451FE2F4325089829A6E953459
FILE: 04 - This Should Make You Happy.flac
Size: 6557279 Hash: B2ADAD9DFEDC1F6237FEB2291015E343 Accuracy: -m0
Conclusion: CDDA 100%
Signature: 0288EC254769A560CD7151A87294F04944F08582
FILE: 03 - Advise and Consent.flac
Size: 10206930 Hash: 406F7EC3974C2634857ABEFA9C481A81 Accuracy: -m0
Conclusion: CDDA 100%
Signature: CBFE5A86C7A6ABE23FDF81F2D14E46BB2CC9CF16
FILE: 02 - Two Much.flac
Size: 7385538 Hash: 4BE2561526A60E2A38145271AAC8AD66 Accuracy: -m0
Conclusion: CDDA 100%
Signature: 4C00EF809F85DC4AA08C6A3D0A9E4CDC01E2A421
FILE: 01 - Everything Is Everything.flac
Size: 6628648 Hash: CFB28EE09CB6B38E78771BAD7D41B0C3 Accuracy: -m0
Conclusion: CDDA 100%
Signature: B1B572A9AC958D9E70D2E8700CEFA2E07F4BDA9A



Поглощение/вытеснение
Только с согласия релизера

Beijing65
Детали торрента:
Название:Bonniwell Music Machine - Ignition (2000) [FLAC|Lossless|tracks + .cue] <Psychedelic Rock, Garage Rock>
Дата добавления:13 Окт 2018 19:19:06
Размер:202 MB
Раздают:1
Качают:0
Форум:Rock (Lossless)

All rights reserved © 2015-2019