TORRENTS45.XYZ

Скачать На берегу / On the Beach (1959) BDRip [H.264]


На берегу / On the Beach (1959) BDRip [H.264]
Производство: США. Lomitas Productions Inc.
Жанр: Драма, Фантастика

Режиссер: Стэнли Крамер
Актеры: Грегори Пек, Ава Гарднер, Фред Астер, Энтони Перкинс, Донна Андерсон, Джон Тейт, Харп МакГуайр, Лола Брукс, Кен Уэйн, Гай Доулмен

Описание:
Фильм Стэнли Крамера - это фильм-предупреждение, поставленный режиссером почти 60 лет тому назад, картина рисует апокалипсическую картину мира после ядерной войны. Австралия - это последний материк, на котором еще жили люди в ожидании того дня, когда радиация дойдет и до этой части света. Начинается фильм как будто с совершенно мирной ноты. Молодой лейтенант Питер Холмс - стройный, подтянутый, в белой накрахмаленной рубашке и в черных брюках, подает жене в постель чай, а дочке в кроватку - рожок с молоком. По печальному, тревожному взгляду, которым Холмс смотрит на жену и дочку, зритель понимает о нависшей над семьей угрозе. Холмс уже знает, что радиация продолжает расти. Командир американской субмарины Тауэрс, потерявший семью, в Австралии встречает женщину, которая пробуждает в нем новые чувства. Как долго это у них продлится в этом безнадежном мире? В финале фильма, лейтенант Питер Холмс принимает единственно верное решение для всей своей семьи...


Возраст: 16+ (зрителям, достигшим 16 лет)

Продолжительность: 02:14:32
Качество видео: BDRip
Перевод: Многоголосый закадровый (проф.), двухголосый закадровый
Субтитры: Русские, английские

Видео: AVC/H.264, 720х432, ~1750 Kbps
Аудио#1: AAC, 2 ch, 192 Kbps | Русский – MVO (''DVD Магия'')
Аудио#2: AC3, 2 ch, 192 Kbps | Русский – DVO (''Film Prestige'')
Аудио#3: AC3, 2 ch, 256 Kbps |Английский – оригинал

Mediainfo:


Общее
Уникальный идентификатор : 243923521977974238804168289336194406618 (0xB781F625A2C8A3BB86FFBFF75C2A98DA)
Полное имя : K:\ФАНТАСТИКА ФЕНТЕЗИ\На берегу\На берегу. 1959.mkv
Формат : Matroska
Версия формата : Version 4 / Version 2
Размер файла : 2,25 Гбайт
Продолжительность : 2 ч. 14 м.
Общий поток : 2392 Кбит/сек
Название фильма : Release for Topmost
Дата кодирования : UTC 2018-10-11 16:41:47
Программа кодирования : mkvmerge v6.2.0 ('Promised Land') built on Apr 28 2013 12:22:01
Библиотека кодирования : libebml v1.3.0 + libmatroska v1.4.0
Attachment : Yes

Видео
Идентификатор : 1
Формат : AVC
Формат/Информация : Advanced Video Codec
Профиль формата : High@L4.1
Параметр CABAC формата : Да
Параметр ReFrames формата : 12 кадров
Идентификатор кодека : V_MPEG4/ISO/AVC
Продолжительность : 2 ч. 14 м.
Битрейт : 1750 Кбит/сек
Ширина : 720 пикселей
Высота : 432 пикселя
Соотношение сторон : 1,667
Режим частоты кадров : Постоянный
Частота кадров : 23,976 кадра/сек
Цветовое пространство : YUV
Субдискретизация насыщенности : 4:2:0
Битовая глубина : 8 бит
Тип развёртки : Прогрессивная
Бит/(Пиксели*Кадры) : 0.235
Размер потока : 1,60 Гбайт (71%)
Заголовок : На берегу. 1959 (Release for Topmost)
Библиотека кодирования : x264 core 146 r2538 121396c
Настройки программы : cabac=1 / ref=12 / deblock=1:-3:-3 / analyse=0x3:0x113 / me=umh / subme=11 / psy=1 / psy_rd=1.00:0.15 / mixed_ref=1 / me_range=32 / chroma_me=1 / trellis=2 / 8x8dct=1 / cqm=0 / deadzone=21,11 / fast_pskip=0 / chroma_qp_offset=-3 / threads=12 / lookahead_threads=2 / sliced_threads=0 / nr=0 / decimate=0 / interlaced=0 / bluray_compat=0 / constrained_intra=0 / bframes=8 / b_pyramid=2 / b_adapt=2 / b_bias=0 / direct=3 / weightb=1 / open_gop=0 / weightp=2 / keyint=240 / keyint_min=23 / scenecut=40 / intra_refresh=0 / rc_lookahead=40 / rc=2pass / mbtree=1 / bitrate=1750 / ratetol=1.0 / qcomp=0.60 / qpmin=0 / qpmax=69 / qpstep=4 / cplxblur=20.0 / qblur=0.5 / ip_ratio=1.40 / aq=1:0.90
Язык : English
Default : Да
Forced : Нет

Аудио #1
Идентификатор : 2
Формат : AC-3
Формат/Информация : Audio Coding 3
Расширение режима : CM (complete main)
Параметр Endianness формата : Big
Идентификатор кодека : A_AC3
Продолжительность : 2 ч. 14 м.
Вид битрейта : Постоянный
Битрейт : 192 Кбит/сек
Каналы : 2 канала
Расположение каналов : Front: L R
Частота : 48,0 КГц
Битовая глубина : 16 бит
Метод сжатия : С потерями
Размер потока : 185 Мбайт (8%)
Заголовок : 'MVO - DVD Магия"
Язык : Russian
Default : Да
Forced : Нет

Аудио #2
Идентификатор : 3
Формат : AC-3
Формат/Информация : Audio Coding 3
Расширение режима : CM (complete main)
Параметр Endianness формата : Big
Идентификатор кодека : A_AC3
Продолжительность : 2 ч. 14 м.
Вид битрейта : Постоянный
Битрейт : 192 Кбит/сек
Каналы : 2 канала
Расположение каналов : Front: L R
Частота : 48,0 КГц
Битовая глубина : 16 бит
Метод сжатия : С потерями
Размер потока : 185 Мбайт (8%)
Заголовок : DVO - 'Film Prestige''
Язык : Russian
Default : Нет
Forced : Нет

Аудио #3
Идентификатор : 4
Формат : AC-3
Формат/Информация : Audio Coding 3
Расширение режима : CM (complete main)
Параметр Endianness формата : Big
Идентификатор кодека : A_AC3
Продолжительность : 2 ч. 14 м.
Вид битрейта : Постоянный
Битрейт : 256 Кбит/сек
Каналы : 2 канала
Расположение каналов : Front: L R
Частота : 48,0 КГц
Битовая глубина : 16 бит
Метод сжатия : С потерями
Размер потока : 246 Мбайт (11%)
Заголовок : Original
Язык : English
Default : Нет
Forced : Нет

Текст #1
Идентификатор : 5
Формат : UTF-8
Идентификатор кодека : S_TEXT/UTF8
Идентификатор кодека/Информация : UTF-8 Plain Text
Заголовок : Ю. Красильников
Язык : Russian
Default : Нет
Forced : Нет

Текст #2
Идентификатор : 6
Формат : UTF-8
Идентификатор кодека : S_TEXT/UTF8
Идентификатор кодека/Информация : UTF-8 Plain Text
Язык : English
Default : Нет
Forced : Нет

Меню
00:00:00.000 : en:Chapter 1
00:13:42.405 : en:Chapter 2
00:36:53.294 : en:Chapter 3
00:56:27.634 : en:Chapter 4
01:14:31.801 : en:Chapter 5
01:29:42.794 : en:Chapter 6
01:38:45.169 : en:Chapter 7
01:53:01.316 : en:Chapter 8

Призы и номинации:

Оскар, 1960 год
Номинации (2):
Лучший монтаж
Лучший саундтрек для драматических/комедийных картин

Золотой глобус, 1960 год
Победитель (1):
Лучший саундтрек

Номинации (4):
Лучший фильм (драма)
Лучший фильм, пропагандирующий мировое взаимопонимание
Лучший режиссер (Стэнли Крамер)
Лучшая мужская роль второго плана (Фред Астер)

Британская академия, 1960 год
Победитель (1):
Премия объединенных наций

Номинации (1):
Лучшая иностранная актриса (Ава Гарднер)
Скриншоты:


Все одноименные релизы в Клубе

Смотреть Online

http://moonwalk.cc/video/35e0d373d7c714e5/iframe
Детали торрента:
Название:На берегу / On the Beach (1959) BDRip [H.264]
Дата добавления:13 Окт 2018 17:20:01
Размер:2,25 GB
Раздают:11
Качают:0
Форум:Зарубежная Классика (HD*Rip/LQ, DVDRip, SATRip, VHSRip)

All rights reserved © 2015-2018