TORRENTS45.XYZ

Скачать Beelzebub-jou no Oki ni Mesu Mama. | As Miss Beelzebub Likes | Как госпожа Вельзевул пожелает [2018, TV, 8 из 12] WEBRip 720p raw


ベルゼブブ嬢のお気に召すまま。
Beelzebub-jou no Oki ni Mesu Mama.
As Miss Beelzebub Likes
Как госпожа Вельзевул пожелает

Тип: TV
Жанр: комедия
Продолжительность: 12 эп. по 25 мин.
Количество серий: 8 из 12

Дата выпуска: c 11.10.2018
Производство: Студия Liden Films / ライデンフィルム
Автор оригинала: Матоба
Режиссер: Кадзуто Минато

Ссылки: World-Art ANN AniDB Расписание
Описание:
Вельзевул — великий демон, который правит миллионами демонов. Муллин, решивший служить ей, узнаёт, что она не соответствует грозному образу и что это беззаботная девочка, которая любит всё пушистое. Это повседневная комедия о мире демонов.

Язык озвучки: Японский
Субтитры: Русские, Английские, Арабские, Испанские, Итальянские, Немецкие, Португальские, Французские
Перевод: официальный (Cranchroll)

Качество видео: WEBRip
Видео: AVC (High@L4), 1280x720 (16:9), ~23.976 fps, ~1992 kbps
Аудио: AAC LC, 2 ch, 44.1 kHz, ~128 kbps

Скриншоты:

Фансервис имеется:



Эпизоды:

1.

Mediainfo:


General
Complete name : Beelzebub-jou\[Erai-raws] Beelzebub-jou no Okinimesu mama - 01 [720p][Multiple Subtitle].mkv
Format : Matroska
Format version : Version 4 / Version 2
File size : 360 MiB
Duration : 23 min 40 s
Overall bit rate : 2 123 kb/s
Encoded date : UTC 2018-10-11 19:10:08
Writing application : mkvmerge v26.0.0 ('In The Game') 64-bit
Writing library : libebml v1.3.6 + libmatroska v1.4.9

Video
ID : 1
Format : AVC
Format/Info : Advanced Video Codec
Format profile : High@L4
Format settings : CABAC / 6 Ref Frames
Format settings, CABAC : Yes
Format settings, ReFrames : 6 frames
Codec ID : V_MPEG4/ISO/AVC
Duration : 23 min 40 s
Bit rate : 1 992 kb/s
Width : 1 280 pixels
Height : 720 pixels
Display aspect ratio : 16:9
Frame rate mode : Constant
Frame rate : 23.976 (24000/1001) FPS
Color space : YUV
Chroma subsampling : 4:2:0
Bit depth : 8 bits
Scan type : Progressive
Bits/(Pixel*Frame) : 0.090
Stream size : 337 MiB (94%)
Writing library : x264 core 142
Encoding settings : cabac=1 / ref=6 / deblock=1:1:1 / analyse=0x3:0x113 / me=umh / subme=8 / psy=1 / psy_rd=0.40:0.00 / mixed_ref=1 / me_range=16 / chroma_me=1 / trellis=1 / 8x8dct=1 / cqm=0 / deadzone=21,11 / fast_pskip=1 / chroma_qp_offset=-2 / threads=10 / lookahead_threads=1 / sliced_threads=0 / nr=0 / decimate=1 / interlaced=0 / bluray_compat=0 / constrained_intra=0 / bframes=3 / b_pyramid=2 / b_adapt=2 / b_bias=0 / direct=3 / weightb=1 / open_gop=0 / weightp=2 / keyint=48 / keyint_min=25 / scenecut=0 / intra_refresh=0 / rc_lookahead=48 / rc=crf / mbtree=1 / crf=15.0 / qcomp=0.60 / qpmin=0 / qpmax=69 / qpstep=4 / vbv_maxrate=4000 / vbv_bufsize=6000 / crf_max=0.0 / nal_hrd=none / filler=0 / ip_ratio=1.40 / aq=1:0.60
Default : Yes
Forced : No

Audio
ID : 2
Format : AAC LC
Format/Info : Advanced Audio Codec Low Complexity
Codec ID : A_AAC-2
Duration : 23 min 40 s
Bit rate : 128 kb/s
Channel(s) : 2 channels
Channel layout : L R
Sampling rate : 44.1 kHz
Frame rate : 43.066 FPS (1024 SPF)
Compression mode : Lossy
Delay relative to video : -83 ms
Stream size : 21.7 MiB (6%)
Default : Yes
Forced : No

Text #1
ID : 3
Format : ASS
Codec ID : S_TEXT/ASS
Codec ID/Info : Advanced Sub Station Alpha
Duration : 22 min 54 s
Bit rate : 126 b/s
Count of elements : 333
Compression mode : Lossless
Stream size : 21.1 KiB (0%)
Title : English(US)
Language : English
Default : Yes
Forced : No

Text #2
ID : 4
Format : ASS
Codec ID : S_TEXT/ASS
Codec ID/Info : Advanced Sub Station Alpha
Duration : 22 min 54 s
Bit rate : 131 b/s
Count of elements : 327
Compression mode : Lossless
Stream size : 22.0 KiB (0%)
Title : Italiano
Language : Italian
Default : No
Forced : No

Text #3
ID : 5
Format : ASS
Codec ID : S_TEXT/ASS
Codec ID/Info : Advanced Sub Station Alpha
Duration : 22 min 54 s
Bit rate : 114 b/s
Count of elements : 295
Compression mode : Lossless
Stream size : 19.2 KiB (0%)
Title : Espanol(Espana)
Language : Spanish
Default : No
Forced : No

Text #4
ID : 6
Format : ASS
Codec ID : S_TEXT/ASS
Codec ID/Info : Advanced Sub Station Alpha
Duration : 22 min 54 s
Bit rate : 118 b/s
Count of elements : 307
Compression mode : Lossless
Stream size : 19.9 KiB (0%)
Title : Espanol
Language : Spanish
Default : No
Forced : No

Text #5
ID : 7
Format : ASS
Codec ID : S_TEXT/ASS
Codec ID/Info : Advanced Sub Station Alpha
Duration : 22 min 54 s
Bit rate : 122 b/s
Count of elements : 331
Compression mode : Lossless
Stream size : 20.5 KiB (0%)
Title : Portugues(Brasil)
Language : Portuguese
Default : No
Forced : No

Text #6
ID : 8
Format : ASS
Codec ID : S_TEXT/ASS
Codec ID/Info : Advanced Sub Station Alpha
Duration : 22 min 54 s
Bit rate : 170 b/s
Count of elements : 337
Compression mode : Lossless
Stream size : 28.5 KiB (0%)
Title : Russian
Language : Russian
Default : No
Forced : No
Детали торрента:
Название:Beelzebub-jou no Oki ni Mesu Mama. | As Miss Beelzebub Likes | Как госпожа Вельзевул пожелает [2018, TV, 8 из 12] WEBRip 720p raw
Дата добавления:01 Дек 2018 22:27:22
Размер:2,52 GB
Раздают:
Качают:1
Форум:Онгоинги

All rights reserved © 2015-2018