TORRENTS45.XYZ

Скачать Hora, Mimi ga Mieteru yo! | Wei, Kan Jian Er Duo La! | Эй, у тебя ушки торчат! [2018, ONA, 8 из 13] WEBRip 720p raw


ほら, 耳がみえてるよ!
Hora, Mimi ga Mieteru yo!
Wei, Kan Jian Er Duo La!
Эй, у тебя ушки торчат!

Тип: ONA
Жанр: приключения
Продолжительность: 3 мин.
Количество серий: 8 из 13

Дата выпуска: c 25.08.2018
Производство: совместное: Alchemy Bros.(Япония), bilibili (Китай)
Режиссер: Канно Тиэ

Ссылки: World-Art ANN AniDB Расписание

Описание:
Да Шу — неудачливый художник, который пытается нарисовать успешную маньхуа. Он ведёт серую и скучную жизнь, не социализируясь и не предпринимая попыток сблизиться с кем бы то ни было. Однажды юноша встречает А Мяо — таинственного студента, у которого на голове... кошачьи ушки! Главному герою не остаётся ничего другого, кроме как приютить беднягу у себя. Несмотря на то, что А Мяо сначала приносит ему сплошные неприятности, со временем Да Шу чувствует, как сердце наполняется теплотой, которую он никогда прежде не испытывал в своей одинокой жизни.

Язык озвучки: Японский
Субтитры: Русские, Английские
Перевод: YakuSub

Качество видео: WEBRip
Видео: AVC (High@L4.1), 1280x720 (16:9), ~23.976 fps, ~1775 kbps
Аудио: AAC LC, 2 ch, 48 kHz, ~192 kbps

Скриншоты:

Эпизоды:

1

Mediainfo:


General
Complete name : Hora Mimi ga Mieteru yo\[Glenn] Hora, Mimi ga Mieteru yo! - 01 [A5B3F4E2].mkv
Format : Matroska
Format version : Version 4 / Version 2
File size : 42.5 MiB
Duration : 3 min 0 s
Overall bit rate : 1 980 kb/s
Encoded date : UTC 2018-10-06 03:02:16
Writing application : mkvmerge v20.0.0 ('I Am The Sun') 64-bit
Writing library : libebml v1.3.5 + libmatroska v1.4.8
Attachments : ARNORG_0.TTF / GandhiSans-Bold_0.ttf / GandhiSans-BoldItalic_0.ttf

Video
ID : 2
Format : AVC
Format/Info : Advanced Video Codec
Format profile : High@L4.1
Format settings : CABAC / 4 Ref Frames
Format settings, CABAC : Yes
Format settings, ReFrames : 4 frames
Codec ID : V_MPEG4/ISO/AVC
Duration : 3 min 0 s
Bit rate : 1 775 kb/s
Width : 1 280 pixels
Height : 720 pixels
Display aspect ratio : 16:9
Frame rate mode : Constant
Frame rate : 23.976 (24000/1001) FPS
Color space : YUV
Chroma subsampling : 4:2:0
Bit depth : 8 bits
Scan type : Progressive
Bits/(Pixel*Frame) : 0.080
Stream size : 38.1 MiB (90%)
Writing library : x264 core 129 r2245+729M 1a52e03
Encoding settings : cabac=1 / ref=4 / deblock=1:1:-1 / analyse=0x3:0x113 / me=umh / subme=9 / psy=1 / fade_compensate=0.00 / psy_rd=1.00:0.00 / mixed_ref=1 / me_range=24 / chroma_me=1 / trellis=2 / 8x8dct=1 / cqm=0 / deadzone=21,11 / fast_pskip=1 / chroma_qp_offset=-2 / threads=8 / lookahead_threads=1 / sliced_threads=0 / nr=0 / decimate=1 / interlaced=0 / bluray_compat=0 / constrained_intra=0 / fgo=0 / bframes=9 / b_pyramid=2 / b_adapt=2 / b_bias=0 / direct=1 / weightb=1 / open_gop=0 / weightp=2 / keyint=240 / keyint_min=24 / scenecut=40 / intra_refresh=0 / rc=crf / mbtree=0 / crf=18.5 / qcomp=0.72 / qpmin=0 / qpmax=69 / qpstep=4 / ip_ratio=1.40 / pb_ratio=1.30 / aq=1:0.85
Default : Yes
Forced : No
Color range : Limited
Color primaries : BT.709
Transfer characteristics : BT.709
Matrix coefficients : BT.709

Audio
ID : 3
Format : AAC LC
Format/Info : Advanced Audio Codec Low Complexity
Codec ID : A_AAC-2
Duration : 3 min 0 s
Bit rate : 192 kb/s
Channel(s) : 2 channels
Channel layout : L R
Sampling rate : 48.0 kHz
Frame rate : 46.875 FPS (1024 SPF)
Compression mode : Lossy
Stream size : 4.12 MiB (10%)
Language : Japanese
Default : Yes
Forced : No

Text
ID : 1
Format : ASS
Codec ID : S_TEXT/ASS
Codec ID/Info : Advanced Sub Station Alpha
Duration : 2 min 56 s
Bit rate : 243 b/s
Count of elements : 81
Compression mode : Lossless
Stream size : 5.25 KiB (0%)
Language : English
Default : Yes
Forced : No

Menu
00:00:00.000 : en:Intro
00:00:43.180 : en:OP
00:00:53.190 : en:Episode
Детали торрента:
Название:Hora, Mimi ga Mieteru yo! | Wei, Kan Jian Er Duo La! | Эй, у тебя ушки торчат! [2018, ONA, 8 из 13] WEBRip 720p raw
Дата добавления:30 Ноя 2018 10:10:57
Размер:353 MB
Раздают:
Качают:1
Форум:Онгоинги

All rights reserved © 2015-2018