TORRENTS45.XYZ

Скачать Jean-Michel Jarre - Planet Jarre (50 Years Of Music) Deluxe Edition (2018) Columbia [FLAC|Lossless|tracks+.cue] <Ambient, New Age, Experimental>


Jean-Michel Jarre Planet Jarre (50 Years Of Music)

Жанр: Ambient, New Age, Experimental • Страна: UK • Год: 2018 • Лейбл: Columbia - 19075833792 • Тип издания: CD
Аудиокодек: FLAC (*.flac) • Тип рипа: tracks+.cue • Продолжительность: 02:42:08 • Источник: RED
Треклист:

CD1

Продолжительность: 01:22:12
Треклист:

Soundscapes
01. Oxygene 1 (07:41)
02. Oxygene 19 (05:01)
03. Rendez-vous 1 (02:55)
04. Millions Of Stars (05:40)
05. Chronology 1 (03:24)
06. Oxygene 20 (05:31)
07. Equinoxe 2 (05:01)
08. Waiting For Cousteau (03:00)
09. The Heart Of Noise (Origin) (02:37)
Themes
10. Industrial Revolution Part 2 (02:23)
11. Oxygene 4 (03:47)
12. Equinoxe 5 (03:46)
13. Oxygene 2 (05:25)
14. Zoolookologie (03:45)
15. Bells (02:05)
16. Equinoxe 4 (05:32)
17. Magnetic Fields 2 (03:59)
18. Rendez-vous 2 (Laser Harp) (02:21)
19. Rendez-vous 4 (04:10)
20. Chronology 4 (04:09)

EAC


Exact Audio Copy V1.3 from 2. September 2016

EAC extraction logfile from 19. September 2018, 22:00

Jean-Michel Jarre / Planet Jarre

Used drive : PLEXTOR PX-891SAF PLUS Adapter: 1 ID: 0

Read mode : Secure
Utilize accurate stream : Yes
Defeat audio cache : Yes
Make use of C2 pointers : No

Read offset correction : 6
Overread into Lead-In and Lead-Out : No
Fill up missing offset samples with silence : Yes
Delete leading and trailing silent blocks : No
Null samples used in CRC calculations : Yes
Used interface : Native Win32 interface for Win NT & 2000
Gap handling : Appended to previous track

Used output format : User Defined Encoder
Selected bitrate : 1024 kBit/s
Quality : High
Add ID3 tag : No
Command line compressor : C:\Program Files (x86)\Exact Audio Copy\Flac\flac.exe
Additional command line options : -0 -V -T "ARTIST=%artist%" -T "TITLE=%title%" -T "ALBUM=%albumtitle%" -T "DATE=%year%" -T "TRACKNUMBER=%tracknr%" -T "TOTALTRACKS=%numtracks%" -T "GENRE=%genre%" -T "COMMENT=Naftamusic Release!" %source%

TOC of the extracted CD

Track | Start | Length | Start sector | End sector
---------------------------------------------------------
1 | 0:00.00 | 7:40.47 | 0 | 34546
2 | 7:40.47 | 5:01.04 | 34547 | 57125
3 | 12:41.51 | 2:55.24 | 57126 | 70274
4 | 15:37.00 | 5:39.71 | 70275 | 95770
5 | 21:16.71 | 3:23.69 | 95771 | 111064
6 | 24:40.65 | 5:30.51 | 111065 | 135865
7 | 30:11.41 | 5:01.15 | 135866 | 158455
8 | 35:12.56 | 3:00.25 | 158456 | 171980
9 | 38:13.06 | 2:36.52 | 171981 | 183732
10 | 40:49.58 | 2:22.54 | 183733 | 194436
11 | 43:12.37 | 3:46.73 | 194437 | 211459
12 | 46:59.35 | 3:45.69 | 211460 | 228403
13 | 50:45.29 | 5:25.33 | 228404 | 252811
14 | 56:10.62 | 3:44.40 | 252812 | 269651
15 | 59:55.27 | 2:05.17 | 269652 | 279043
16 | 62:00.44 | 5:32.29 | 279044 | 303972
17 | 67:32.73 | 3:58.65 | 303973 | 321887
18 | 71:31.63 | 2:20.63 | 321888 | 332450
19 | 73:52.51 | 4:09.64 | 332451 | 351189
20 | 78:02.40 | 4:08.73 | 351190 | 369862

Track 1

Filename E:\Nafta Releases\Jean-Michel Jarre - Planet Jarre (50 Years Of Music 2 CD 2018)[FLAC]-Naftamusic\CD 1\01 - Oxygene 1.wav

Pre-gap length 0:00:02.00

Peak level 98.0 %
Extraction speed 3.3 X
Track quality 100.0 %
Test CRC 56723869
Copy CRC 56723869
Track not present in AccurateRip database
Copy OK

Track 2

Filename E:\Nafta Releases\Jean-Michel Jarre - Planet Jarre (50 Years Of Music 2 CD 2018)[FLAC]-Naftamusic\CD 1\02 - Oxygene 19.wav

Pre-gap length 0:00:00.59

Peak level 98.0 %
Extraction speed 3.6 X
Track quality 100.0 %
Test CRC E5C7B6A3
Copy CRC E5C7B6A3
Track not present in AccurateRip database
Copy OK

Track 3

Filename E:\Nafta Releases\Jean-Michel Jarre - Planet Jarre (50 Years Of Music 2 CD 2018)[FLAC]-Naftamusic\CD 1\03 - Rendez-Vous 1.wav

Pre-gap length 0:00:00.65

Peak level 98.0 %
Extraction speed 3.5 X
Track quality 100.0 %
Test CRC 8BFCA898
Copy CRC 8BFCA898
Track not present in AccurateRip database
Copy OK

Track 4

Filename E:\Nafta Releases\Jean-Michel Jarre - Planet Jarre (50 Years Of Music 2 CD 2018)[FLAC]-Naftamusic\CD 1\04 - Millions Of Stars.wav

Pre-gap length 0:00:00.71

Peak level 98.0 %
Extraction speed 3.4 X
Track quality 99.9 %
Test CRC 96477CF0
Copy CRC 96477CF0
Track not present in AccurateRip database
Copy OK

Track 5

Filename E:\Nafta Releases\Jean-Michel Jarre - Planet Jarre (50 Years Of Music 2 CD 2018)[FLAC]-Naftamusic\CD 1\05 - Chronology 1.wav

Pre-gap length 0:00:00.28

Peak level 98.0 %
Extraction speed 4.1 X
Track quality 100.0 %
Test CRC D4EE1D54
Copy CRC D4EE1D54
Track not present in AccurateRip database
Copy OK

Track 6

Filename E:\Nafta Releases\Jean-Michel Jarre - Planet Jarre (50 Years Of Music 2 CD 2018)[FLAC]-Naftamusic\CD 1\06 - Oxygene 20.wav

Pre-gap length 0:00:00.42

Peak level 98.0 %
Extraction speed 3.8 X
Track quality 99.9 %
Test CRC F996D361
Copy CRC F996D361
Track not present in AccurateRip database
Copy OK

Track 7

Filename E:\Nafta Releases\Jean-Michel Jarre - Planet Jarre (50 Years Of Music 2 CD 2018)[FLAC]-Naftamusic\CD 1\07 - Equinoxe 2.wav

Pre-gap length 0:00:01.04

Peak level 98.0 %
Extraction speed 4.7 X
Track quality 100.0 %
Test CRC 40E931A8
Copy CRC 40E931A8
Track not present in AccurateRip database
Copy OK

Track 8

Filename E:\Nafta Releases\Jean-Michel Jarre - Planet Jarre (50 Years Of Music 2 CD 2018)[FLAC]-Naftamusic\CD 1\08 - Waiting For Cousteau.wav

Pre-gap length 0:00:00.63

Peak level 98.0 %
Extraction speed 4.5 X
Track quality 100.0 %
Test CRC 7E85D488
Copy CRC 7E85D488
Track not present in AccurateRip database
Copy OK

Track 9

Filename E:\Nafta Releases\Jean-Michel Jarre - Planet Jarre (50 Years Of Music 2 CD 2018)[FLAC]-Naftamusic\CD 1\09 - The Heart Of Noise (The Origin).wav

Pre-gap length 0:00:00.53

Peak level 98.0 %
Extraction speed 3.3 X
Track quality 99.9 %
Test CRC 198BB8A0
Copy CRC 198BB8A0
Track not present in AccurateRip database
Copy OK

Track 10

Filename E:\Nafta Releases\Jean-Michel Jarre - Planet Jarre (50 Years Of Music 2 CD 2018)[FLAC]-Naftamusic\CD 1\10 - Industrial Revolution 2.wav

Pre-gap length 0:00:00.54

Peak level 98.0 %
Extraction speed 3.2 X
Track quality 99.9 %
Test CRC 21BDF18D
Copy CRC 21BDF18D
Track not present in AccurateRip database
Copy OK

Track 11

Filename E:\Nafta Releases\Jean-Michel Jarre - Planet Jarre (50 Years Of Music 2 CD 2018)[FLAC]-Naftamusic\CD 1\11 - Oxygene 4.wav

Pre-gap length 0:00:00.59

Peak level 98.0 %
Extraction speed 5.0 X
Track quality 100.0 %
Test CRC EAC28F4E
Copy CRC EAC28F4E
Track not present in AccurateRip database
Copy OK

Track 12

Filename E:\Nafta Releases\Jean-Michel Jarre - Planet Jarre (50 Years Of Music 2 CD 2018)[FLAC]-Naftamusic\CD 1\12 - Equinoxe 5.wav

Pre-gap length 0:00:00.56

Peak level 98.0 %
Extraction speed 5.2 X
Track quality 100.0 %
Test CRC A69E837A
Copy CRC A69E837A
Track not present in AccurateRip database
Copy OK

Track 13

Filename E:\Nafta Releases\Jean-Michel Jarre - Planet Jarre (50 Years Of Music 2 CD 2018)[FLAC]-Naftamusic\CD 1\13 - Oxygene 2.wav

Pre-gap length 0:00:00.65

Peak level 98.0 %
Extraction speed 5.6 X
Track quality 100.0 %
Test CRC BB7C965E
Copy CRC BB7C965E
Track not present in AccurateRip database
Copy OK

Track 14

Filename E:\Nafta Releases\Jean-Michel Jarre - Planet Jarre (50 Years Of Music 2 CD 2018)[FLAC]-Naftamusic\CD 1\14 - Zoolookologie.wav

Pre-gap length 0:00:00.53

Peak level 98.0 %
Extraction speed 5.5 X
Track quality 100.0 %
Test CRC 24DE5722
Copy CRC 24DE5722
Track not present in AccurateRip database
Copy OK

Track 15

Filename E:\Nafta Releases\Jean-Michel Jarre - Planet Jarre (50 Years Of Music 2 CD 2018)[FLAC]-Naftamusic\CD 1\15 - Bells.wav

Pre-gap length 0:00:00.47

Peak level 98.0 %
Extraction speed 5.1 X
Track quality 100.0 %
Test CRC 2B7B1AA7
Copy CRC 2B7B1AA7
Track not present in AccurateRip database
Copy OK

Track 16

Filename E:\Nafta Releases\Jean-Michel Jarre - Planet Jarre (50 Years Of Music 2 CD 2018)[FLAC]-Naftamusic\CD 1\16 - Equinoxe 4.wav

Pre-gap length 0:00:00.48

Peak level 98.0 %
Extraction speed 6.1 X
Track quality 100.0 %
Test CRC 11203252
Copy CRC 11203252
Track not present in AccurateRip database
Copy OK

Track 17

Filename E:\Nafta Releases\Jean-Michel Jarre - Planet Jarre (50 Years Of Music 2 CD 2018)[FLAC]-Naftamusic\CD 1\17 - Magnetic Fields 2.wav

Pre-gap length 0:00:00.71

Peak level 98.0 %
Extraction speed 5.9 X
Track quality 100.0 %
Test CRC 2101B38E
Copy CRC 2101B38E
Track not present in AccurateRip database
Copy OK

Track 18

Filename E:\Nafta Releases\Jean-Michel Jarre - Planet Jarre (50 Years Of Music 2 CD 2018)[FLAC]-Naftamusic\CD 1\18 - Rendez-Vous 2.wav

Pre-gap length 0:00:00.47

Peak level 98.0 %
Extraction speed 5.4 X
Track quality 100.0 %
Test CRC 75FBC55D
Copy CRC 75FBC55D
Track not present in AccurateRip database
Copy OK

Track 19

Filename E:\Nafta Releases\Jean-Michel Jarre - Planet Jarre (50 Years Of Music 2 CD 2018)[FLAC]-Naftamusic\CD 1\19 - Rendez-Vous 4.wav

Pre-gap length 0:00:00.72

Peak level 98.0 %
Extraction speed 6.3 X
Track quality 100.0 %
Test CRC 258AF483
Copy CRC 258AF483
Track not present in AccurateRip database
Copy OK

Track 20

Filename E:\Nafta Releases\Jean-Michel Jarre - Planet Jarre (50 Years Of Music 2 CD 2018)[FLAC]-Naftamusic\CD 1\20 - Chronology 4.wav

Pre-gap length 0:00:00.72

Peak level 98.0 %
Extraction speed 4.9 X
Track quality 99.9 %
Test CRC 87735341
Copy CRC 87735341
Track not present in AccurateRip database
Copy OK

None of the tracks are present in the AccurateRip database

No errors occurred

End of status report

==== Log checksum 3A6142D85B4B48E4C75B036B3DE7BA339E230164C3FA3C1910B7C52EE9297A43 ====

CUE


REM GENRE Electronic
REM DATE 2018
REM DISCID 30134314
REM COMMENT "ExactAudioCopy v1.3"
PERFORMER "Jean-Michel Jarre"
TITLE "Planet Jarre"
REM COMPOSER ""
FILE "01 - Oxygene 1.wav" WAVE
TRACK 01 AUDIO
TITLE "Oxygene 1"
PERFORMER "Jean-Michel Jarre"
REM COMPOSER ""
INDEX 01 00:00:00
TRACK 02 AUDIO
TITLE "Oxygene 19"
PERFORMER "Jean-Michel Jarre"
REM COMPOSER ""
INDEX 00 07:39:63
FILE "02 - Oxygene 19.wav" WAVE
INDEX 01 00:00:00
TRACK 03 AUDIO
TITLE "Rendez-Vous 1"
PERFORMER "Jean-Michel Jarre"
REM COMPOSER ""
INDEX 00 05:00:14
FILE "03 - Rendez-Vous 1.wav" WAVE
INDEX 01 00:00:00
TRACK 04 AUDIO
TITLE "Millions Of Stars"
PERFORMER "Jean-Michel Jarre"
REM COMPOSER ""
INDEX 00 02:54:28
FILE "04 - Millions Of Stars.wav" WAVE
INDEX 01 00:00:00
TRACK 05 AUDIO
TITLE "Chronology 1"
PERFORMER "Jean-Michel Jarre"
REM COMPOSER ""
INDEX 00 05:39:43
FILE "05 - Chronology 1.wav" WAVE
INDEX 01 00:00:00
TRACK 06 AUDIO
TITLE "Oxygene 20"
PERFORMER "Jean-Michel Jarre"
REM COMPOSER ""
INDEX 00 03:23:27
FILE "06 - Oxygene 20.wav" WAVE
INDEX 01 00:00:00
TRACK 07 AUDIO
TITLE "Equinoxe 2"
PERFORMER "Jean-Michel Jarre"
REM COMPOSER ""
INDEX 00 05:29:47
FILE "07 - Equinoxe 2.wav" WAVE
INDEX 01 00:00:00
TRACK 08 AUDIO
TITLE "Waiting For Cousteau"
PERFORMER "Jean-Michel Jarre"
REM COMPOSER ""
INDEX 00 05:00:27
FILE "08 - Waiting For Cousteau.wav" WAVE
INDEX 01 00:00:00
TRACK 09 AUDIO
TITLE "The Heart Of Noise (The Origin)"
PERFORMER "Jean-Michel Jarre"
REM COMPOSER ""
INDEX 00 02:59:47
FILE "09 - The Heart Of Noise (The Origin).wav" WAVE
INDEX 01 00:00:00
TRACK 10 AUDIO
TITLE "Industrial Revolution 2"
PERFORMER "Jean-Michel Jarre"
REM COMPOSER ""
INDEX 00 02:35:73
FILE "10 - Industrial Revolution 2.wav" WAVE
INDEX 01 00:00:00
TRACK 11 AUDIO
TITLE "Oxygene 4"
PERFORMER "Jean-Michel Jarre"
REM COMPOSER ""
INDEX 00 02:21:70
FILE "11 - Oxygene 4.wav" WAVE
INDEX 01 00:00:00
TRACK 12 AUDIO
TITLE "Equinoxe 5"
PERFORMER "Jean-Michel Jarre"
REM COMPOSER ""
INDEX 00 03:46:17
FILE "12 - Equinoxe 5.wav" WAVE
INDEX 01 00:00:00
TRACK 13 AUDIO
TITLE "Oxygene 2"
PERFORMER "Jean-Michel Jarre"
REM COMPOSER ""
INDEX 00 03:45:04
FILE "13 - Oxygene 2.wav" WAVE
INDEX 01 00:00:00
TRACK 14 AUDIO
TITLE "Zoolookologie"
PERFORMER "Jean-Michel Jarre"
REM COMPOSER ""
INDEX 00 05:24:55
FILE "14 - Zoolookologie.wav" WAVE
INDEX 01 00:00:00
TRACK 15 AUDIO
TITLE "Bells"
PERFORMER "Jean-Michel Jarre"
REM COMPOSER ""
INDEX 00 03:43:68
FILE "15 - Bells.wav" WAVE
INDEX 01 00:00:00
TRACK 16 AUDIO
TITLE "Equinoxe 4"
PERFORMER "Jean-Michel Jarre"
REM COMPOSER ""
INDEX 00 02:04:44
FILE "16 - Equinoxe 4.wav" WAVE
INDEX 01 00:00:00
TRACK 17 AUDIO
TITLE "Magnetic Fields 2"
PERFORMER "Jean-Michel Jarre"
REM COMPOSER ""
INDEX 00 05:31:33
FILE "17 - Magnetic Fields 2.wav" WAVE
INDEX 01 00:00:00
TRACK 18 AUDIO
TITLE "Rendez-Vous 2"
PERFORMER "Jean-Michel Jarre"
REM COMPOSER ""
INDEX 00 03:58:18
FILE "18 - Rendez-Vous 2.wav" WAVE
INDEX 01 00:00:00
TRACK 19 AUDIO
TITLE "Rendez-Vous 4"
PERFORMER "Jean-Michel Jarre"
REM COMPOSER ""
INDEX 00 02:19:66
FILE "19 - Rendez-Vous 4.wav" WAVE
INDEX 01 00:00:00
TRACK 20 AUDIO
TITLE "Chronology 4"
PERFORMER "Jean-Michel Jarre"
REM COMPOSER ""
INDEX 00 04:08:67
FILE "20 - Chronology 4.wav" WAVE
INDEX 01 00:00:00

CD2

Продолжительность: 01:19:54
Треклист:

Sequences
01. Coachella Opening (03:59)
02. Arpeggiator (06:16)
03. Automatic Part 1 (02:58)
04. Exit (05:45)
05. Equinoxe 7 (03:36)
06. Oxygene 8 (05:24)
07. Stardust (04:37)
08. Herbalizer (03:26)
09. Revolutions (03:23)
Explorations & Early Work
10. Ethnicolor (03:31)
11. Souvenir Of China (04:00)
12. Blah Blah Cafe (03:22)
13. Music For Supermarkets (Demo Excerpt) (02:04)
14. Roseland = Le Pays De Rose (02:04)
15. La Cage (03:09)
16. Erosmachine (02:59)
17. Hypnose (03:27)
18. The Song Of The Burnt Barns = La Chanson Des Granges Brulees (02:46)
19. Happiness Is A Sad Song (05:51)
20. Aor Bleu (03:09)
21. Last Rendez-Vous (04:08)

EAC


Exact Audio Copy V1.3 from 2. September 2016

EAC extraction logfile from 19. September 2018, 22:57

Jean-Michel Jarre / Planet Jarre

Used drive : PLEXTOR PX-891SAF PLUS Adapter: 1 ID: 0

Read mode : Secure
Utilize accurate stream : Yes
Defeat audio cache : Yes
Make use of C2 pointers : No

Read offset correction : 6
Overread into Lead-In and Lead-Out : No
Fill up missing offset samples with silence : Yes
Delete leading and trailing silent blocks : No
Null samples used in CRC calculations : Yes
Used interface : Native Win32 interface for Win NT & 2000
Gap handling : Appended to previous track

Used output format : User Defined Encoder
Selected bitrate : 1024 kBit/s
Quality : High
Add ID3 tag : No
Command line compressor : C:\Program Files (x86)\Exact Audio Copy\Flac\flac.exe
Additional command line options : -0 -V -T "ARTIST=%artist%" -T "TITLE=%title%" -T "ALBUM=%albumtitle%" -T "DATE=%year%" -T "TRACKNUMBER=%tracknr%" -T "TOTALTRACKS=%numtracks%" -T "GENRE=%genre%" -T "COMMENT=Naftamusic Release!" %source%

TOC of the extracted CD

Track | Start | Length | Start sector | End sector
---------------------------------------------------------
1 | 0:00.00 | 3:59.07 | 0 | 17931
2 | 3:59.07 | 6:15.51 | 17932 | 46107
3 | 10:14.58 | 2:58.04 | 46108 | 59461
4 | 13:12.62 | 5:45.20 | 59462 | 85356
5 | 18:58.07 | 3:35.74 | 85357 | 101555
6 | 22:34.06 | 5:24.28 | 101556 | 125883
7 | 27:58.34 | 4:37.04 | 125884 | 146662
8 | 32:35.38 | 3:26.18 | 146663 | 162130
9 | 36:01.56 | 3:23.37 | 162131 | 177392
10 | 39:25.18 | 3:30.48 | 177393 | 193190
11 | 42:55.66 | 4:00.31 | 193191 | 211221
12 | 46:56.22 | 3:22.35 | 211222 | 226406
13 | 50:18.57 | 2:04.15 | 226407 | 235721
14 | 52:22.72 | 2:03.57 | 235722 | 245003
15 | 54:26.54 | 3:09.36 | 245004 | 259214
16 | 57:36.15 | 2:59.01 | 259215 | 272640
17 | 60:35.16 | 3:27.04 | 272641 | 288169
18 | 64:02.20 | 2:45.38 | 288170 | 300582
19 | 66:47.58 | 5:51.24 | 300583 | 326931
20 | 72:39.07 | 3:09.26 | 326932 | 341132
21 | 75:48.33 | 4:08.34 | 341133 | 359766

Track 1

Filename E:\Nafta Releases\Jean-Michel Jarre - Planet Jarre (50 Years Of Music 2 CD 2018)[FLAC]-Naftamusic\CD 2\01 - Coachella Valley.wav

Pre-gap length 0:00:02.00

Peak level 98.0 %
Extraction speed 3.0 X
Track quality 100.0 %
Test CRC 2216C5F9
Copy CRC 2216C5F9
Track not present in AccurateRip database
Copy OK

Track 2

Filename E:\Nafta Releases\Jean-Michel Jarre - Planet Jarre (50 Years Of Music 2 CD 2018)[FLAC]-Naftamusic\CD 2\02 - Arpegiateur.wav

Pre-gap length 0:00:00.41

Peak level 98.0 %
Extraction speed 3.5 X
Track quality 100.0 %
Test CRC 34ADED32
Copy CRC 34ADED32
Track not present in AccurateRip database
Copy OK

Track 3

Filename E:\Nafta Releases\Jean-Michel Jarre - Planet Jarre (50 Years Of Music 2 CD 2018)[FLAC]-Naftamusic\CD 2\03 - Automatic Part 1.wav

Pre-gap length 0:00:00.58

Peak level 98.0 %
Extraction speed 3.4 X
Track quality 100.0 %
Test CRC AC018CBD
Copy CRC AC018CBD
Track not present in AccurateRip database
Copy OK

Track 4

Filename E:\Nafta Releases\Jean-Michel Jarre - Planet Jarre (50 Years Of Music 2 CD 2018)[FLAC]-Naftamusic\CD 2\04 - Exit.wav

Pre-gap length 0:00:00.40

Peak level 98.0 %
Extraction speed 3.4 X
Track quality 99.9 %
Test CRC B7E1D289
Copy CRC B7E1D289
Track not present in AccurateRip database
Copy OK

Track 5

Filename E:\Nafta Releases\Jean-Michel Jarre - Planet Jarre (50 Years Of Music 2 CD 2018)[FLAC]-Naftamusic\CD 2\05 - Equinoxe 7.wav

Pre-gap length 0:00:00.47

Peak level 98.0 %
Extraction speed 4.0 X
Track quality 100.0 %
Test CRC DCFE10A2
Copy CRC DCFE10A2
Track not present in AccurateRip database
Copy OK

Track 6

Filename E:\Nafta Releases\Jean-Michel Jarre - Planet Jarre (50 Years Of Music 2 CD 2018)[FLAC]-Naftamusic\CD 2\06 - Oxygene 8.wav

Pre-gap length 0:00:00.72

Peak level 98.0 %
Extraction speed 3.7 X
Track quality 99.9 %
Test CRC 9B8B221E
Copy CRC 9B8B221E
Track not present in AccurateRip database
Copy OK

Track 7

Filename E:\Nafta Releases\Jean-Michel Jarre - Planet Jarre (50 Years Of Music 2 CD 2018)[FLAC]-Naftamusic\CD 2\07 - Stardust.wav

Pre-gap length 0:00:00.55

Peak level 98.0 %
Extraction speed 4.5 X
Track quality 100.0 %
Test CRC EA7CC97D
Copy CRC EA7CC97D
Track not present in AccurateRip database
Copy OK

Track 8

Filename E:\Nafta Releases\Jean-Michel Jarre - Planet Jarre (50 Years Of Music 2 CD 2018)[FLAC]-Naftamusic\CD 2\08 - Herbalizer.wav

Pre-gap length 0:00:00.43

Peak level 98.0 %
Extraction speed 4.5 X
Track quality 100.0 %
Test CRC 9174CD19
Copy CRC 9174CD19
Track not present in AccurateRip database
Copy OK

Track 9

Filename E:\Nafta Releases\Jean-Michel Jarre - Planet Jarre (50 Years Of Music 2 CD 2018)[FLAC]-Naftamusic\CD 2\09 - Revolutions.wav

Pre-gap length 0:00:00.56

Peak level 98.0 %
Extraction speed 3.6 X
Track quality 99.9 %
Test CRC 5467DF2C
Copy CRC 5467DF2C
Track not present in AccurateRip database
Copy OK

Track 10

Filename E:\Nafta Releases\Jean-Michel Jarre - Planet Jarre (50 Years Of Music 2 CD 2018)[FLAC]-Naftamusic\CD 2\10 - Ethnicolor.wav

Pre-gap length 0:00:00.73

Peak level 98.0 %
Extraction speed 4.9 X
Track quality 100.0 %
Test CRC 2E85F32F
Copy CRC 2E85F32F
Track not present in AccurateRip database
Copy OK

Track 11

Filename E:\Nafta Releases\Jean-Michel Jarre - Planet Jarre (50 Years Of Music 2 CD 2018)[FLAC]-Naftamusic\CD 2\11 - Souvenir Of China.wav

Pre-gap length 0:00:00.60

Peak level 98.0 %
Extraction speed 5.1 X
Track quality 100.0 %
Test CRC 8B679B68
Copy CRC 8B679B68
Track not present in AccurateRip database
Copy OK

Track 12

Filename E:\Nafta Releases\Jean-Michel Jarre - Planet Jarre (50 Years Of Music 2 CD 2018)[FLAC]-Naftamusic\CD 2\12 - Blah Blah Cafe.wav

Pre-gap length 0:00:00.44

Peak level 98.0 %
Extraction speed 5.1 X
Track quality 100.0 %
Test CRC 419728C5
Copy CRC 419728C5
Track not present in AccurateRip database
Copy OK

Track 13

Filename E:\Nafta Releases\Jean-Michel Jarre - Planet Jarre (50 Years Of Music 2 CD 2018)[FLAC]-Naftamusic\CD 2\13 - Music For Supermarkets (Demo).wav

Pre-gap length 0:00:00.51

Peak level 98.0 %
Extraction speed 4.6 X
Track quality 100.0 %
Test CRC 5845FAF7
Copy CRC 5845FAF7
Track not present in AccurateRip database
Copy OK

Track 14

Filename E:\Nafta Releases\Jean-Michel Jarre - Planet Jarre (50 Years Of Music 2 CD 2018)[FLAC]-Naftamusic\CD 2\14 - Roseland.wav

Pre-gap length 0:00:00.40

Peak level 98.0 %
Extraction speed 4.8 X
Track quality 100.0 %
Test CRC 9CFFCAFF
Copy CRC 9CFFCAFF
Track not present in AccurateRip database
Copy OK

Track 15

Filename E:\Nafta Releases\Jean-Michel Jarre - Planet Jarre (50 Years Of Music 2 CD 2018)[FLAC]-Naftamusic\CD 2\15 - La Cage.wav

Pre-gap length 0:00:00.46

Peak level 98.0 %
Extraction speed 5.3 X
Track quality 100.0 %
Test CRC 4A4E92DD
Copy CRC 4A4E92DD
Track not present in AccurateRip database
Copy OK

Track 16

Filename E:\Nafta Releases\Jean-Michel Jarre - Planet Jarre (50 Years Of Music 2 CD 2018)[FLAC]-Naftamusic\CD 2\16 - Erosmachine.wav

Pre-gap length 0:00:00.58

Peak level 98.0 %
Extraction speed 5.4 X
Track quality 100.0 %
Test CRC 16965D08
Copy CRC 16965D08
Track not present in AccurateRip database
Copy OK

Track 17

Filename E:\Nafta Releases\Jean-Michel Jarre - Planet Jarre (50 Years Of Music 2 CD 2018)[FLAC]-Naftamusic\CD 2\17 - Hypnose.wav

Pre-gap length 0:00:00.45

Peak level 98.0 %
Extraction speed 5.6 X
Track quality 100.0 %
Test CRC C12EB319
Copy CRC C12EB319
Track not present in AccurateRip database
Copy OK

Track 18

Filename E:\Nafta Releases\Jean-Michel Jarre - Planet Jarre (50 Years Of Music 2 CD 2018)[FLAC]-Naftamusic\CD 2\18 - The Song Of The Burnt Barns.wav

Pre-gap length 0:00:00.65

Peak level 98.0 %
Extraction speed 5.5 X
Track quality 100.0 %
Test CRC F9EDCC44
Copy CRC F9EDCC44
Track not present in AccurateRip database
Copy OK

Track 19

Filename E:\Nafta Releases\Jean-Michel Jarre - Planet Jarre (50 Years Of Music 2 CD 2018)[FLAC]-Naftamusic\CD 2\19 - Happiness Is A Sad Song.wav

Pre-gap length 0:00:00.53

Peak level 98.0 %
Extraction speed 6.2 X
Track quality 100.0 %
Test CRC E68A84C3
Copy CRC E68A84C3
Track not present in AccurateRip database
Copy OK

Track 20

Filename E:\Nafta Releases\Jean-Michel Jarre - Planet Jarre (50 Years Of Music 2 CD 2018)[FLAC]-Naftamusic\CD 2\20 - Aor Bleu.wav

Pre-gap length 0:00:00.50

Peak level 98.0 %
Extraction speed 5.9 X
Track quality 100.0 %
Test CRC D7D2ABC7
Copy CRC D7D2ABC7
Track not present in AccurateRip database
Copy OK

Track 21

Filename E:\Nafta Releases\Jean-Michel Jarre - Planet Jarre (50 Years Of Music 2 CD 2018)[FLAC]-Naftamusic\CD 2\21 - Last Rendez Vous.wav

Pre-gap length 0:00:00.49

Peak level 98.0 %
Extraction speed 6.2 X
Track quality 100.0 %
Test CRC 4C111078
Copy CRC 4C111078
Track not present in AccurateRip database
Copy OK

None of the tracks are present in the AccurateRip database

No errors occurred

End of status report

==== Log checksum F3CACBF01EED192762819B5A5014CB5EA712041C35B6F34710B51E8A28E89727 ====

CUE


REM GENRE Electronic
REM DATE 2018
REM DISCID 3212BC15
REM COMMENT "ExactAudioCopy v1.3"
PERFORMER "Jean-Michel Jarre"
TITLE "Planet Jarre"
REM COMPOSER ""
FILE "01 - Coachella Valley.wav" WAVE
TRACK 01 AUDIO
TITLE "Coachella Valley"
PERFORMER "Jean-Michel Jarre"
REM COMPOSER ""
INDEX 01 00:00:00
TRACK 02 AUDIO
TITLE "Arpegiateur"
PERFORMER "Jean-Michel Jarre"
REM COMPOSER ""
INDEX 00 03:58:41
FILE "02 - Arpegiateur.wav" WAVE
INDEX 01 00:00:00
TRACK 03 AUDIO
TITLE "Automatic Part 1"
PERFORMER "Jean-Michel Jarre"
REM COMPOSER ""
INDEX 00 06:14:68
FILE "03 - Automatic Part 1.wav" WAVE
INDEX 01 00:00:00
TRACK 04 AUDIO
TITLE "Exit"
PERFORMER "Jean-Michel Jarre"
REM COMPOSER ""
INDEX 00 02:57:39
FILE "04 - Exit.wav" WAVE
INDEX 01 00:00:00
TRACK 05 AUDIO
TITLE "Equinoxe 7"
PERFORMER "Jean-Michel Jarre"
REM COMPOSER ""
INDEX 00 05:44:48
FILE "05 - Equinoxe 7.wav" WAVE
INDEX 01 00:00:00
TRACK 06 AUDIO
TITLE "Oxygene 8"
PERFORMER "Jean-Michel Jarre"
REM COMPOSER ""
INDEX 00 03:35:02
FILE "06 - Oxygene 8.wav" WAVE
INDEX 01 00:00:00
TRACK 07 AUDIO
TITLE "Stardust"
PERFORMER "Jean-Michel Jarre"
REM COMPOSER ""
INDEX 00 05:23:48
FILE "07 - Stardust.wav" WAVE
INDEX 01 00:00:00
TRACK 08 AUDIO
TITLE "Herbalizer"
PERFORMER "Jean-Michel Jarre"
REM COMPOSER ""
INDEX 00 04:36:36
FILE "08 - Herbalizer.wav" WAVE
INDEX 01 00:00:00
TRACK 09 AUDIO
TITLE "Revolutions"
PERFORMER "Jean-Michel Jarre"
REM COMPOSER ""
INDEX 00 03:25:37
FILE "09 - Revolutions.wav" WAVE
INDEX 01 00:00:00
TRACK 10 AUDIO
TITLE "Ethnicolor"
PERFORMER "Jean-Michel Jarre"
REM COMPOSER ""
INDEX 00 03:22:39
FILE "10 - Ethnicolor.wav" WAVE
INDEX 01 00:00:00
TRACK 11 AUDIO
TITLE "Souvenir Of China"
PERFORMER "Jean-Michel Jarre"
REM COMPOSER ""
INDEX 00 03:29:63
FILE "11 - Souvenir Of China.wav" WAVE
INDEX 01 00:00:00
TRACK 12 AUDIO
TITLE "Blah Blah Cafe"
PERFORMER "Jean-Michel Jarre"
REM COMPOSER ""
INDEX 00 03:59:62
FILE "12 - Blah Blah Cafe.wav" WAVE
INDEX 01 00:00:00
TRACK 13 AUDIO
TITLE "Music For Supermarkets (Demo)"
PERFORMER "Jean-Michel Jarre"
REM COMPOSER ""
INDEX 00 03:21:59
FILE "13 - Music For Supermarkets (Demo).wav" WAVE
INDEX 01 00:00:00
TRACK 14 AUDIO
TITLE "Roseland"
PERFORMER "Jean-Michel Jarre"
REM COMPOSER ""
INDEX 00 02:03:50
FILE "14 - Roseland.wav" WAVE
INDEX 01 00:00:00
TRACK 15 AUDIO
TITLE "La Cage"
PERFORMER "Jean-Michel Jarre"
REM COMPOSER ""
INDEX 00 02:03:11
FILE "15 - La Cage.wav" WAVE
INDEX 01 00:00:00
TRACK 16 AUDIO
TITLE "Erosmachine"
PERFORMER "Jean-Michel Jarre"
REM COMPOSER ""
INDEX 00 03:08:53
FILE "16 - Erosmachine.wav" WAVE
INDEX 01 00:00:00
TRACK 17 AUDIO
TITLE "Hypnose"
PERFORMER "Jean-Michel Jarre"
REM COMPOSER ""
INDEX 00 02:58:31
FILE "17 - Hypnose.wav" WAVE
INDEX 01 00:00:00
TRACK 18 AUDIO
TITLE "The Song Of The Burnt Barns"
PERFORMER "Jean-Michel Jarre"
REM COMPOSER ""
INDEX 00 03:26:14
FILE "18 - The Song Of The Burnt Barns.wav" WAVE
INDEX 01 00:00:00
TRACK 19 AUDIO
TITLE "Happiness Is A Sad Song"
PERFORMER "Jean-Michel Jarre"
REM COMPOSER ""
INDEX 00 02:44:60
FILE "19 - Happiness Is A Sad Song.wav" WAVE
INDEX 01 00:00:00
TRACK 20 AUDIO
TITLE "Aor Bleu"
PERFORMER "Jean-Michel Jarre"
REM COMPOSER ""
INDEX 00 05:50:49
FILE "20 - Aor Bleu.wav" WAVE
INDEX 01 00:00:00
TRACK 21 AUDIO
TITLE "Last Rendez Vous"
PERFORMER "Jean-Michel Jarre"
REM COMPOSER ""
INDEX 00 03:08:52
FILE "21 - Last Rendez Vous.wav" WAVE
INDEX 01 00:00:00

Discogs

Детали торрента:
Название:Jean-Michel Jarre - Planet Jarre (50 Years Of Music) Deluxe Edition (2018) Columbia [FLAC|Lossless|tracks+.cue] <Ambient, New Age, Experimental>
Дата добавления:04 Окт 2018 05:36:27
Размер:1,13 GB
Раздают:45
Качают:4
Форум:Easy listening (Lossless)

All rights reserved © 2015-2019