TORRENTS45.XYZ

Скачать Lakoff / Igr Ver & Pete Namlook - Planetarium (1998) Fax +49-69/450464 [FLAC|Lossless|tracks+.cue] <Ambient, Experimental>


Lakoff / Igr Ver & Pete Namlook Planetarium
Жанр: Ambient, Experimental
Издание: Fax +49-69/450464 - PW 38
Продолжительность: 00:50:37

Кодек: FLAC
Битрейт: Lossless
Тип рипа: tracks+.cue

Треклист:


01. Life On Mars (03:15)
02. There Is Not Another World (06:50)
03. Echnaton (03:28)
04. Waters Of Love (03:46)
05. Tetra (05:57)
06. Musika I Slowa (03:23)
07. Indigo (04:08)
08. The Second Sector (03:37)
09. In The Memory Of Magnitola (03:17)
10. Una (03:17)
11. Bellan (02:39)
12. Shadows Of Shadows (07:00)

Отчёт EAC:


EAC extraction logfile from 15. February 2007, 22:02 for CD
Planetarium / Planetarium

Used drive : ASUS DRW-1608P3S Adapter: 1 ID: 1
Read mode : Secure with NO C2, accurate stream, disable cache
Read offset correction : 48
Overread into Lead-In and Lead-Out : No

Used output format : C:\Program Files\FLAC\flac.exe (User Defined Encoder)
128 kBit/s
Additional command line options : -8 -A tukey(0.25) -A gauss(0.1875) -b 4096 -V -T "artist=%a" -T "title=%t" -T "album=%g" -T "date=%y" -T "tracknumber=%n" -T "genre=%m" %s --sector-align

Other options :
Fill up missing offset samples with silence : Yes
Delete leading and trailing silent blocks : No
Installed external ASPI interface

Track 1
Filename E:\FLACs\Pete Namlook & Lakoff, Igr Ver - Planetarium [FAX]\01 - Planetarium - Life on Mars.wav

Pre-gap length 0:00:02.00

Peak level 98.5 %
Track quality 99.9 %
Test CRC D0B47C62
Copy CRC D0B47C62
Copy OK

Track 2
Filename E:\FLACs\Pete Namlook & Lakoff, Igr Ver - Planetarium [FAX]\02 - Planetarium - There is Not Another World.wav

Peak level 99.1 %
Track quality 100.0 %
Test CRC 83A31B9E
Copy CRC 83A31B9E
Copy OK

Track 3
Filename E:\FLACs\Pete Namlook & Lakoff, Igr Ver - Planetarium [FAX]\03 - Planetarium - Echnation.wav

Pre-gap length 0:00:00.58

Peak level 99.2 %
Track quality 99.9 %
Test CRC FB719FEA
Copy CRC FB719FEA
Copy OK

Track 4
Filename E:\FLACs\Pete Namlook & Lakoff, Igr Ver - Planetarium [FAX]\04 - Planetarium - Waters of Love.wav

Pre-gap length 0:00:00.60

Peak level 98.0 %
Track quality 100.0 %
Test CRC DE0E0ED9
Copy CRC DE0E0ED9
Copy OK

Track 5
Filename E:\FLACs\Pete Namlook & Lakoff, Igr Ver - Planetarium [FAX]\05 - Planetarium - Tetra.wav

Pre-gap length 0:00:00.60

Peak level 99.0 %
Track quality 100.0 %
Test CRC 424525A6
Copy CRC 424525A6
Copy OK

Track 6
Filename E:\FLACs\Pete Namlook & Lakoff, Igr Ver - Planetarium [FAX]\06 - Planetarium - Musika i slowa.wav

Pre-gap length 0:00:00.60

Peak level 98.3 %
Track quality 100.0 %
Test CRC CF7D9ACE
Copy CRC CF7D9ACE
Copy OK

Track 7
Filename E:\FLACs\Pete Namlook & Lakoff, Igr Ver - Planetarium [FAX]\07 - Planetarium - Indigo.wav

Pre-gap length 0:00:00.60

Peak level 95.7 %
Track quality 100.0 %
Test CRC 04457232
Copy CRC 04457232
Copy OK

Track 8
Filename E:\FLACs\Pete Namlook & Lakoff, Igr Ver - Planetarium [FAX]\08 - Planetarium - The Second Sector.wav

Pre-gap length 0:00:00.60

Peak level 98.1 %
Track quality 100.0 %
Test CRC 3632D6F8
Copy CRC 3632D6F8
Copy OK

Track 9
Filename E:\FLACs\Pete Namlook & Lakoff, Igr Ver - Planetarium [FAX]\09 - Planetarium - In the Memory of Magnitola.wav

Pre-gap length 0:00:00.60

Peak level 90.0 %
Track quality 100.0 %
Test CRC 8CF04F34
Copy CRC 8CF04F34
Copy OK

Track 10
Filename E:\FLACs\Pete Namlook & Lakoff, Igr Ver - Planetarium [FAX]\10 - Planetarium - Una.wav

Pre-gap length 0:00:00.60

Peak level 93.0 %
Track quality 100.0 %
Test CRC B5299D59
Copy CRC B5299D59
Copy OK

Track 11
Filename E:\FLACs\Pete Namlook & Lakoff, Igr Ver - Planetarium [FAX]\11 - Planetarium - Bellan.wav

Pre-gap length 0:00:00.60

Peak level 89.4 %
Track quality 100.0 %
Test CRC 32D7615A
Copy CRC 32D7615A
Copy OK

Track 12
Filename E:\FLACs\Pete Namlook & Lakoff, Igr Ver - Planetarium [FAX]\12 - Planetarium - Shadows of Shadows.wav

Pre-gap length 0:00:00.60

Peak level 95.1 %
Track quality 99.9 %
Test CRC CCD21DDF
Copy CRC CCD21DDF
Copy OK

No errors occured

End of status report

Cue Sheet (.cue):


REM GENRE Ambient
REM DATE 1998
REM DISCID 9E0BDD0C
REM COMMENT "ExactAudioCopy v0.95b3"
PERFORMER "Planetarium"
TITLE "Planetarium"
FILE "01 - Planetarium - Life on Mars.wav" WAVE
TRACK 01 AUDIO
TITLE "Life on Mars"
PERFORMER "Planetarium"
FLAGS DCP
INDEX 01 00:00:00
FILE "02 - Planetarium - There is Not Another World.wav" WAVE
TRACK 02 AUDIO
TITLE "There is Not Another World"
PERFORMER "Planetarium"
FLAGS DCP
INDEX 01 00:00:00
TRACK 03 AUDIO
TITLE "Echnation"
PERFORMER "Planetarium"
FLAGS DCP
INDEX 00 06:49:07
FILE "03 - Planetarium - Echnation.wav" WAVE
INDEX 01 00:00:00
TRACK 04 AUDIO
TITLE "Waters of Love"
PERFORMER "Planetarium"
FLAGS DCP
INDEX 00 03:27:45
FILE "04 - Planetarium - Waters of Love.wav" WAVE
INDEX 01 00:00:00
TRACK 05 AUDIO
TITLE "Tetra"
PERFORMER "Planetarium"
FLAGS DCP
INDEX 00 03:45:34
FILE "05 - Planetarium - Tetra.wav" WAVE
INDEX 01 00:00:00
TRACK 06 AUDIO
TITLE "Musika i slowa"
PERFORMER "Planetarium"
FLAGS DCP
INDEX 00 05:56:23
FILE "06 - Planetarium - Musika i slowa.wav" WAVE
INDEX 01 00:00:00
TRACK 07 AUDIO
TITLE "Indigo"
PERFORMER "Planetarium"
FLAGS DCP
INDEX 00 03:22:59
FILE "07 - Planetarium - Indigo.wav" WAVE
INDEX 01 00:00:00
TRACK 08 AUDIO
TITLE "The Second Sector"
PERFORMER "Planetarium"
FLAGS DCP
INDEX 00 04:07:39
FILE "08 - Planetarium - The Second Sector.wav" WAVE
INDEX 01 00:00:00
TRACK 09 AUDIO
TITLE "In the Memory of Magnitola"
PERFORMER "Planetarium"
FLAGS DCP
INDEX 00 03:36:06
FILE "09 - Planetarium - In the Memory of Magnitola.wav" WAVE
INDEX 01 00:00:00
TRACK 10 AUDIO
TITLE "Una"
PERFORMER "Planetarium"
FLAGS DCP
INDEX 00 03:16:50
FILE "10 - Planetarium - Una.wav" WAVE
INDEX 01 00:00:00
TRACK 11 AUDIO
TITLE "Bellan"
PERFORMER "Planetarium"
FLAGS DCP
INDEX 00 03:16:28
FILE "11 - Planetarium - Bellan.wav" WAVE
INDEX 01 00:00:00
TRACK 12 AUDIO
TITLE "Shadows of Shadows"
PERFORMER "Planetarium"
FLAGS DCP
INDEX 00 02:38:17
FILE "12 - Planetarium - Shadows of Shadows.wav" WAVE
INDEX 01 00:00:00

Discogs

Детали торрента:
Название:Lakoff / Igr Ver & Pete Namlook - Planetarium (1998) Fax +49-69/450464 [FLAC|Lossless|tracks+.cue] <Ambient, Experimental>
Дата добавления:29 Сен 2018 21:09:24
Размер:260 MB
Раздают:2
Качают:0
Форум:Easy listening (Lossless)

All rights reserved © 2015-2019