TORRENTS45.XYZ

Скачать Jimmy Raney - Four Classic Albums Plus (1953 - 1956) 2CD, 2012, Avid Jazz [FLAC|Lossless|tracks + .cue] <Cool, Bop, Guitar Jazz>


Jimmy Raney - Four Classic Albums Plus (1953 - 1956) 2CD, 2012, Avid Jazz
Жанр: Cool, Bop, Guitar Jazz
Издание: Avid Jazz - AMSC1051
Продолжительность: 02:37:32

Кодек: FLAC (tracks+.cue)
Битрейт: Lossless
Источник (релизер): template
Страна-производитель диска: England
Наличие сканов в содержимом раздачи: да
Треклист:
CD1:
01. Minor [4:36]
02. Some Other Spring [5:05]
03. Double Image [4:33]
04. On the Square [4:32]
05. Spring Is Here [2:57]
06. One More for the Mode [3:52]
07. What's New [2:49]
08. Tomorrow Fairly Cloudy [3:31]

♦ CD1

Трeклист:


01. Minor [4:36]
02. Some Other Spring [5:05]
03. Double Image [4:33]
04. On the Square [4:32]
05. Spring Is Here [2:57]
06. One More for the Mode [3:52]
07. What's New [2:49]
08. Tomorrow Fairly Cloudy [3:31]
09. A Foggy Day [4:09]
10. Someone to Watch over Me [3:16]
11. Cross Your Heart [3:58]
12. You Don't Know What Love Is [3:43]
13. Isn't It Romantic [4:11]
14. How Long Has This Been Going On? [4:35]
15. No Male for Me [4:24]
16. The Flag Is Up [4:15]
17. Get Off That Roof [4:12]
18. Jim's Tune [4:07]
19. No One But Me [5:00]

Продолжительность:
01:17:48

Лог создания рипа


X Lossless Decoder version 20170729 (150.3)

XLD extraction logfile from 2018-08-07 23:57:57 -0400

Jimmy Raney / Four Classic Albums Plus

Used drive : TSSTcorp BDDVDW SE-506CB (revision TS02)
Media type : Pressed CD

Ripper mode : XLD Secure Ripper
Disable audio cache : OK for the drive with a cache less than 1375KiB
Make use of C2 pointers : NO
Read offset correction : 6
Max retry count : 20
Gap status : Analyzed, Appended (except HTOA)

TOC of the extracted CD
Track | Start | Length | Start sector | End sector
---------------------------------------------------------
1 | 00:00:00 | 04:36:07 | 0 | 20706
2 | 04:36:07 | 05:05:13 | 20707 | 43594
3 | 09:41:20 | 04:33:34 | 43595 | 64103
4 | 14:14:54 | 04:32:06 | 64104 | 84509
5 | 18:46:60 | 02:56:71 | 84510 | 97780
6 | 21:43:56 | 03:52:16 | 97781 | 115196
7 | 25:35:72 | 02:48:40 | 115197 | 127836
8 | 28:24:37 | 03:31:28 | 127837 | 143689
9 | 31:55:65 | 04:09:29 | 143690 | 162393
10 | 36:05:19 | 03:16:13 | 162394 | 177106
11 | 39:21:32 | 03:57:45 | 177107 | 194926
12 | 43:19:02 | 03:43:14 | 194927 | 211665
13 | 47:02:16 | 04:10:68 | 211666 | 230483
14 | 51:13:09 | 04:35:10 | 230484 | 251118
15 | 55:48:19 | 04:24:22 | 251119 | 270940
16 | 60:12:41 | 04:15:29 | 270941 | 290094
17 | 64:27:70 | 04:12:21 | 290095 | 309015
18 | 68:40:16 | 04:07:31 | 309016 | 327571
19 | 72:47:47 | 05:00:20 | 327572 | 350091

AccurateRip Summary (DiscID: 0034fdc2-02e08fa0-14123b13)
Track 01 : OK (v2, confidence 6/6)
Track 02 : OK (v2, confidence 6/6)
Track 03 : OK (v2, confidence 6/6)
Track 04 : OK (v2, confidence 6/6)
Track 05 : OK (v2, confidence 6/6)
Track 06 : OK (v2, confidence 6/6)
Track 07 : OK (v2, confidence 6/6)
Track 08 : OK (v2, confidence 6/6)
Track 09 : OK (v2, confidence 6/6)
Track 10 : OK (v2, confidence 6/6)
Track 11 : OK (v2, confidence 6/6)
Track 12 : OK (v2, confidence 6/6)
Track 13 : OK (v2, confidence 5/5)
Track 14 : OK (v2, confidence 5/5)
Track 15 : OK (v2, confidence 5/5)
Track 16 : OK (v2, confidence 5/5)
Track 17 : OK (v2, confidence 5/5)
Track 18 : OK (v2, confidence 5/5)
Track 19 : OK (v2, confidence 5/5)
->All tracks accurately ripped.

All Tracks
Album gain : -3.32 dB
Peak : 0.935577
Statistics
Read error : 0
Jitter error (maybe fixed) : 18
Retry sector count : 5005
Damaged sector count : 0

Track 01
Filename : /Users/jhmac/Music/XLD rips/Jimmy Raney - Four Classic Albums Plus (2012) [FLAC]/01 Minor.flac
Pre-gap length : 00:02:00

Track gain : -2.97 dB
Peak : 0.713562
CRC32 hash (test run) : 7CCF35FA
CRC32 hash : 7CCF35FA
CRC32 hash (skip zero) : DA150147
AccurateRip v1 signature : E2CD5528
AccurateRip v2 signature : 45699E95
->Accurately ripped (v2, confidence 6/6)
Statistics
Read error : 0
Jitter error (maybe fixed) : 0
Retry sector count : 0
Damaged sector count : 0

Track 02
Filename : /Users/jhmac/Music/XLD rips/Jimmy Raney - Four Classic Albums Plus (2012) [FLAC]/02 Some Other Spring.flac
Pre-gap length : 00:03:58

Track gain : -2.09 dB
Peak : 0.723816
CRC32 hash (test run) : B2E5F9D1
CRC32 hash : B2E5F9D1
CRC32 hash (skip zero) : 1D3DEA69
AccurateRip v1 signature : 0A069C45
AccurateRip v2 signature : 7A27F1EF
->Accurately ripped (v2, confidence 6/6)
Statistics
Read error : 0
Jitter error (maybe fixed) : 0
Retry sector count : 228
Damaged sector count : 0

Track 03
Filename : /Users/jhmac/Music/XLD rips/Jimmy Raney - Four Classic Albums Plus (2012) [FLAC]/03 Double Image.flac
Pre-gap length : 00:03:58

Track gain : -2.70 dB
Peak : 0.682678
CRC32 hash (test run) : E892333E
CRC32 hash : E892333E
CRC32 hash (skip zero) : 0F11EAD4
AccurateRip v1 signature : B97C4065
AccurateRip v2 signature : 1404445C
->Accurately ripped (v2, confidence 6/6)
Statistics
Read error : 0
Jitter error (maybe fixed) : 2
Retry sector count : 490
Damaged sector count : 0

Track 04
Filename : /Users/jhmac/Music/XLD rips/Jimmy Raney - Four Classic Albums Plus (2012) [FLAC]/04 On The Square.flac
Pre-gap length : 00:03:58

Track gain : -2.57 dB
Peak : 0.669037
CRC32 hash (test run) : CB32EA81
CRC32 hash : CB32EA81
CRC32 hash (skip zero) : C16A8103
AccurateRip v1 signature : AE9C89D4
AccurateRip v2 signature : 9AB1A426
->Accurately ripped (v2, confidence 6/6)
Statistics
Read error : 0
Jitter error (maybe fixed) : 1
Retry sector count : 448
Damaged sector count : 0

Track 05
Filename : /Users/jhmac/Music/XLD rips/Jimmy Raney - Four Classic Albums Plus (2012) [FLAC]/05 Spring Is Here.flac
Pre-gap length : 00:03:58

Track gain : -4.74 dB
Peak : 0.831879
CRC32 hash (test run) : 07DEBAAC
CRC32 hash : 07DEBAAC
CRC32 hash (skip zero) : 0947CE9F
AccurateRip v1 signature : 03A7EF0B
AccurateRip v2 signature : C48B035E
->Accurately ripped (v2, confidence 6/6)
Statistics
Read error : 0
Jitter error (maybe fixed) : 0
Retry sector count : 0
Damaged sector count : 0

Track 06
Filename : /Users/jhmac/Music/XLD rips/Jimmy Raney - Four Classic Albums Plus (2012) [FLAC]/06 One More For The Mode.flac
Pre-gap length : 00:03:58

Track gain : -4.30 dB
Peak : 0.843048
CRC32 hash (test run) : 3648D176
CRC32 hash : 3648D176
CRC32 hash (skip zero) : 49CE7FDB
AccurateRip v1 signature : 9871687D
AccurateRip v2 signature : 7267C677
->Accurately ripped (v2, confidence 6/6)
Statistics
Read error : 0
Jitter error (maybe fixed) : 3
Retry sector count : 496
Damaged sector count : 0

Track 07
Filename : /Users/jhmac/Music/XLD rips/Jimmy Raney - Four Classic Albums Plus (2012) [FLAC]/07 What's New.flac
Pre-gap length : 00:03:58

Track gain : -4.53 dB
Peak : 0.782990
CRC32 hash (test run) : 0AB7C74C
CRC32 hash : 0AB7C74C
CRC32 hash (skip zero) : FEB78B93
AccurateRip v1 signature : 7AF86E90
AccurateRip v2 signature : 8807FAC6
->Accurately ripped (v2, confidence 6/6)
Statistics
Read error : 0
Jitter error (maybe fixed) : 2
Retry sector count : 778
Damaged sector count : 0

Track 08
Filename : /Users/jhmac/Music/XLD rips/Jimmy Raney - Four Classic Albums Plus (2012) [FLAC]/08 Tomorrow Fairly Cloudy.flac
Pre-gap length : 00:03:58

Track gain : -4.56 dB
Peak : 0.792969
CRC32 hash (test run) : 413A211A
CRC32 hash : 413A211A
CRC32 hash (skip zero) : 0FE97EDE
AccurateRip v1 signature : 44509F71
AccurateRip v2 signature : 13295D1D
->Accurately ripped (v2, confidence 6/6)
Statistics
Read error : 0
Jitter error (maybe fixed) : 0
Retry sector count : 74
Damaged sector count : 0

Track 09
Filename : /Users/jhmac/Music/XLD rips/Jimmy Raney - Four Classic Albums Plus (2012) [FLAC]/09 A Foggy Day.flac
Pre-gap length : 00:03:58

Track gain : -4.82 dB
Peak : 0.854126
CRC32 hash (test run) : B9D30406
CRC32 hash : B9D30406
CRC32 hash (skip zero) : CA9EE064
AccurateRip v1 signature : BBCF94E3
AccurateRip v2 signature : 337C8C8F
->Accurately ripped (v2, confidence 6/6)
Statistics
Read error : 0
Jitter error (maybe fixed) : 0
Retry sector count : 274
Damaged sector count : 0

Track 10
Filename : /Users/jhmac/Music/XLD rips/Jimmy Raney - Four Classic Albums Plus (2012) [FLAC]/10 Someone To Watch Over Me.flac
Pre-gap length : 00:03:58

Track gain : -3.85 dB
Peak : 0.789673
CRC32 hash (test run) : A0C9A6E9
CRC32 hash : A0C9A6E9
CRC32 hash (skip zero) : 8C78C342
AccurateRip v1 signature : 5EB47044
AccurateRip v2 signature : 724EBA8A
->Accurately ripped (v2, confidence 6/6)
Statistics
Read error : 0
Jitter error (maybe fixed) : 0
Retry sector count : 18
Damaged sector count : 0

Track 11
Filename : /Users/jhmac/Music/XLD rips/Jimmy Raney - Four Classic Albums Plus (2012) [FLAC]/11 Cross Your Heart.flac
Pre-gap length : 00:03:58

Track gain : -4.40 dB
Peak : 0.935516
CRC32 hash (test run) : 44CF4FAB
CRC32 hash : 44CF4FAB
CRC32 hash (skip zero) : 8DBAEA62
AccurateRip v1 signature : EF217353
AccurateRip v2 signature : 87DD6C93
->Accurately ripped (v2, confidence 6/6)
Statistics
Read error : 0
Jitter error (maybe fixed) : 0
Retry sector count : 290
Damaged sector count : 0

Track 12
Filename : /Users/jhmac/Music/XLD rips/Jimmy Raney - Four Classic Albums Plus (2012) [FLAC]/12 You Don't Know What Love Is.flac
Pre-gap length : 00:03:58

Track gain : -3.34 dB
Peak : 0.845032
CRC32 hash (test run) : 8E0806F1
CRC32 hash : 8E0806F1
CRC32 hash (skip zero) : 2D67F00B
AccurateRip v1 signature : 4E704901
AccurateRip v2 signature : 90997716
->Accurately ripped (v2, confidence 6/6)
Statistics
Read error : 0
Jitter error (maybe fixed) : 4
Retry sector count : 250
Damaged sector count : 0

Track 13
Filename : /Users/jhmac/Music/XLD rips/Jimmy Raney - Four Classic Albums Plus (2012) [FLAC]/13 Isn't It Romantic.flac
Pre-gap length : 00:03:58

Track gain : -2.48 dB
Peak : 0.765594
CRC32 hash (test run) : 9AA4E90D
CRC32 hash : 9AA4E90D
CRC32 hash (skip zero) : EF53331E
AccurateRip v1 signature : 9902B44F
AccurateRip v2 signature : 582F0A70
->Accurately ripped (v2, confidence 5/5)
Statistics
Read error : 0
Jitter error (maybe fixed) : 2
Retry sector count : 0
Damaged sector count : 0

Track 14
Filename : /Users/jhmac/Music/XLD rips/Jimmy Raney - Four Classic Albums Plus (2012) [FLAC]/14 How Long Has This Been Going On.flac
Pre-gap length : 00:03:58

Track gain : -1.13 dB
Peak : 0.658173
CRC32 hash (test run) : CC032C64
CRC32 hash : CC032C64
CRC32 hash (skip zero) : 4679C45D
AccurateRip v1 signature : 1A3B7D49
AccurateRip v2 signature : A3E4D647
->Accurately ripped (v2, confidence 5/5)
Statistics
Read error : 0
Jitter error (maybe fixed) : 1
Retry sector count : 280
Damaged sector count : 0

Track 15
Filename : /Users/jhmac/Music/XLD rips/Jimmy Raney - Four Classic Albums Plus (2012) [FLAC]/15 No Male For Me.flac
Pre-gap length : 00:03:58

Track gain : -2.52 dB
Peak : 0.875458
CRC32 hash (test run) : D65F3DB1
CRC32 hash : D65F3DB1
CRC32 hash (skip zero) : 293A76F9
AccurateRip v1 signature : 22CDECF3
AccurateRip v2 signature : BEA2D8D2
->Accurately ripped (v2, confidence 5/5)
Statistics
Read error : 0
Jitter error (maybe fixed) : 1
Retry sector count : 487
Damaged sector count : 0

Track 16
Filename : /Users/jhmac/Music/XLD rips/Jimmy Raney - Four Classic Albums Plus (2012) [FLAC]/16 The Flag Is Up.flac
Pre-gap length : 00:03:58

Track gain : -2.64 dB
Peak : 0.935577
CRC32 hash (test run) : 520E7A6D
CRC32 hash : 520E7A6D
CRC32 hash (skip zero) : 5D6D4F64
AccurateRip v1 signature : 9451E183
AccurateRip v2 signature : D40C62BD
->Accurately ripped (v2, confidence 5/5)
Statistics
Read error : 0
Jitter error (maybe fixed) : 0
Retry sector count : 0
Damaged sector count : 0

Track 17
Filename : /Users/jhmac/Music/XLD rips/Jimmy Raney - Four Classic Albums Plus (2012) [FLAC]/17 Get Off That Roof.flac
Pre-gap length : 00:03:58

Track gain : -2.59 dB
Peak : 0.829071
CRC32 hash (test run) : 1E6C3BD5
CRC32 hash : 1E6C3BD5
CRC32 hash (skip zero) : 91D4D78B
AccurateRip v1 signature : DCDEF9FC
AccurateRip v2 signature : EC184A0E
->Accurately ripped (v2, confidence 5/5)
Statistics
Read error : 0
Jitter error (maybe fixed) : 2
Retry sector count : 594
Damaged sector count : 0

Track 18
Filename : /Users/jhmac/Music/XLD rips/Jimmy Raney - Four Classic Albums Plus (2012) [FLAC]/18 Jim's Tune.flac
Pre-gap length : 00:03:58

Track gain : -2.46 dB
Peak : 0.768097
CRC32 hash (test run) : DEEE5902
CRC32 hash : DEEE5902
CRC32 hash (skip zero) : CF059F65
AccurateRip v1 signature : 64652EE0
AccurateRip v2 signature : 7DC79E17
->Accurately ripped (v2, confidence 5/5)
Statistics
Read error : 0
Jitter error (maybe fixed) : 0
Retry sector count : 0
Damaged sector count : 0

Track 19
Filename : /Users/jhmac/Music/XLD rips/Jimmy Raney - Four Classic Albums Plus (2012) [FLAC]/19 No One But Me.flac
Pre-gap length : 00:03:58

Track gain : -2.93 dB
Peak : 0.789093
CRC32 hash (test run) : AB5E396C
CRC32 hash : AB5E396C
CRC32 hash (skip zero) : 605172D2
AccurateRip v1 signature : 45D33923
AccurateRip v2 signature : DC2AF8A4
->Accurately ripped (v2, confidence 5/5)
Statistics
Read error : 0
Jitter error (maybe fixed) : 0
Retry sector count : 298
Damaged sector count : 0

No errors occurred

End of status report

-----BEGIN XLD SIGNATURE-----
Ihk28uIMIBDI0C.LtcpVDZpGzn1ZyEg1GpI5wHJRoyQxnvqs.8BTKWgwJwpZRZrxCW40u1xpzjAslXukGml4e_fjnGXRo7QDzjvm8da
-----END XLD SIGNATURE-----

Содержание индексной карты (.CUE)


TITLE "Four Classic Albums Plus CD1"
PERFORMER "Jimmy Raney"
REM GENRE "Jazz"
REM DATE "2012"
REM DISCID 14123B13
REM REPLAYGAIN_ALBUM_GAIN -3.32 dB
REM REPLAYGAIN_ALBUM_PEAK 0.935577
FILE "01 - Minor.flac" WAVE
TRACK 01 AUDIO
TITLE "Minor"
REM REPLAYGAIN_TRACK_GAIN -2.97 dB
REM REPLAYGAIN_TRACK_PEAK 0.713562
INDEX 01 00:00:00
TRACK 02 AUDIO
TITLE "Some Other Spring"
REM REPLAYGAIN_TRACK_GAIN -2.09 dB
REM REPLAYGAIN_TRACK_PEAK 0.723816
INDEX 00 04:32:24
FILE "02 - Some Other Spring.flac" WAVE
INDEX 01 00:00:00
TRACK 03 AUDIO
TITLE "Double Image"
REM REPLAYGAIN_TRACK_GAIN -2.70 dB
REM REPLAYGAIN_TRACK_PEAK 0.682678
INDEX 00 05:01:30
FILE "03 - Double Image.flac" WAVE
INDEX 01 00:00:00
TRACK 04 AUDIO
TITLE "On the Square"
REM REPLAYGAIN_TRACK_GAIN -2.57 dB
REM REPLAYGAIN_TRACK_PEAK 0.669037
INDEX 00 04:29:51
FILE "04 - On the Square.flac" WAVE
INDEX 01 00:00:00
TRACK 05 AUDIO
TITLE "Spring Is Here"
REM REPLAYGAIN_TRACK_GAIN -4.74 dB
REM REPLAYGAIN_TRACK_PEAK 0.831879
INDEX 00 04:28:23
FILE "05 - Spring Is Here.flac" WAVE
INDEX 01 00:00:00
TRACK 06 AUDIO
TITLE "One More for the Mode"
REM REPLAYGAIN_TRACK_GAIN -4.30 dB
REM REPLAYGAIN_TRACK_PEAK 0.843048
INDEX 00 02:53:13
FILE "06 - One More for the Mode.flac" WAVE
INDEX 01 00:00:00
TRACK 07 AUDIO
TITLE "What's New"
REM REPLAYGAIN_TRACK_GAIN -4.53 dB
REM REPLAYGAIN_TRACK_PEAK 0.782990
INDEX 00 03:48:33
FILE "07 - What's New.flac" WAVE
INDEX 01 00:00:00
TRACK 08 AUDIO
TITLE "Tomorrow Fairly Cloudy"
REM REPLAYGAIN_TRACK_GAIN -4.56 dB
REM REPLAYGAIN_TRACK_PEAK 0.792969
INDEX 00 02:44:57
FILE "08 - Tomorrow Fairly Cloudy.flac" WAVE
INDEX 01 00:00:00
TRACK 09 AUDIO
TITLE "A Foggy Day"
REM REPLAYGAIN_TRACK_GAIN -4.82 dB
REM REPLAYGAIN_TRACK_PEAK 0.854126
INDEX 00 03:27:45
FILE "09 - A Foggy Day.flac" WAVE
INDEX 01 00:00:00
TRACK 10 AUDIO
TITLE "Someone to Watch over Me"
REM REPLAYGAIN_TRACK_GAIN -3.85 dB
REM REPLAYGAIN_TRACK_PEAK 0.789673
INDEX 00 04:05:46
FILE "10 - Someone to Watch over Me.flac" WAVE
INDEX 01 00:00:00
TRACK 11 AUDIO
TITLE "Cross Your Heart"
REM REPLAYGAIN_TRACK_GAIN -4.40 dB
REM REPLAYGAIN_TRACK_PEAK 0.935516
INDEX 00 03:12:30
FILE "11 - Cross Your Heart.flac" WAVE
INDEX 01 00:00:00
TRACK 12 AUDIO
TITLE "You Don't Know What Love Is"
REM REPLAYGAIN_TRACK_GAIN -3.34 dB
REM REPLAYGAIN_TRACK_PEAK 0.845032
INDEX 00 03:53:62
FILE "12 - You Don't Know What Love Is.flac" WAVE
INDEX 01 00:00:00
TRACK 13 AUDIO
TITLE "Isn't It Romantic"
REM REPLAYGAIN_TRACK_GAIN -2.48 dB
REM REPLAYGAIN_TRACK_PEAK 0.765594
INDEX 00 03:39:31
FILE "13 - Isn't It Romantic.flac" WAVE
INDEX 01 00:00:00
TRACK 14 AUDIO
TITLE "How Long Has This Been Going On?"
REM REPLAYGAIN_TRACK_GAIN -1.13 dB
REM REPLAYGAIN_TRACK_PEAK 0.658173
INDEX 00 04:07:10
FILE "14 - How Long Has This Been Going On.flac" WAVE
INDEX 01 00:00:00
TRACK 15 AUDIO
TITLE "No Male for Me"
REM REPLAYGAIN_TRACK_GAIN -2.52 dB
REM REPLAYGAIN_TRACK_PEAK 0.875458
INDEX 00 04:31:27
FILE "15 - No Male for Me.flac" WAVE
INDEX 01 00:00:00
TRACK 16 AUDIO
TITLE "The Flag Is Up"
REM REPLAYGAIN_TRACK_GAIN -2.64 dB
REM REPLAYGAIN_TRACK_PEAK 0.935577
INDEX 00 04:20:39
FILE "16 - The Flag Is Up.flac" WAVE
INDEX 01 00:00:00
TRACK 17 AUDIO
TITLE "Get Off That Roof"
REM REPLAYGAIN_TRACK_GAIN -2.59 dB
REM REPLAYGAIN_TRACK_PEAK 0.829071
INDEX 00 04:11:46
FILE "17 - Get Off That Roof.flac" WAVE
INDEX 01 00:00:00
TRACK 18 AUDIO
TITLE "Jim's Tune"
REM REPLAYGAIN_TRACK_GAIN -2.46 dB
REM REPLAYGAIN_TRACK_PEAK 0.768097
INDEX 00 04:08:38
FILE "18 - Jim's Tune.flac" WAVE
INDEX 01 00:00:00
TRACK 19 AUDIO
TITLE "No One But Me"
REM REPLAYGAIN_TRACK_GAIN -2.93 dB
REM REPLAYGAIN_TRACK_PEAK 0.789093
INDEX 00 04:03:48
FILE "19 - No One But Me.flac" WAVE
INDEX 01 00:00:00

Отчёт auCDtect Task manager


-----------------------

DON'T MODIFY THIS FILE

-----------------------

PERFORMER: auCDtect Task Manager, ver. 1.6.0 RC1 build 1.6.0.1
Copyright (c) 2008-2010 y-soft. All rights reserved
http://y-soft.org

ANALYZER: auCDtect: CD records authenticity detector, version 0.8.2
Copyright (c) 2004 Oleg Berngardt. All rights reserved.
Copyright (c) 2004 Alexander Djourik. All rights reserved.

FILE: 19 - No One But Me.flac
Size: 20506054 Hash: BEA39C27C8A527B96D9C7501E31EFE3D Accuracy: -m0
Conclusion: CDDA 100%
Signature: E7C26736F329B4DF4167C8F2A0B16D13702F1DAD
FILE: 18 - Jim's Tune.flac
Size: 16821517 Hash: 9A839D5B66F5E6E35B4BFDE377D5ECC4 Accuracy: -m0
Conclusion: CDDA 100%
Signature: CEFF04C14F610E887087092E3B35F398E09AB6F3
FILE: 17 - Get Off That Roof.flac
Size: 16651833 Hash: 90E552E4AE19BC89FC5BA9F4D7446B2B Accuracy: -m0
Conclusion: CDDA 99%
Signature: 34648529BC1C6165E5A15F5373A4EEFE18FB0D7F
FILE: 16 - The Flag Is Up.flac
Size: 16197479 Hash: 01B9C84F24945038880171748669B3B4 Accuracy: -m0
Conclusion: CDDA 100%
Signature: C5E63584D0785DAB019639A3DA36D766A50178E9
FILE: 15 - No Male for Me.flac
Size: 16190649 Hash: 8902918DD834E2A7645039C6257BE14F Accuracy: -m0
Conclusion: CDDA 100%
Signature: 3AEB3EB53801D15285FE454FEC763EB028D2DE74
FILE: 14 - How Long Has This Been Going On.flac
Size: 14811766 Hash: 3E7B7E1B70099627473A5B74BB5896E6 Accuracy: -m0
Conclusion: CDDA 100%
Signature: FF27416FE40CC7BCB0AED1FED0B2C57FEBE1E0EA
FILE: 13 - Isn't It Romantic.flac
Size: 15341087 Hash: 2A252C3741797041480DF929ED03433C Accuracy: -m0
Conclusion: CDDA 100%
Signature: 49BDC79080FB636D8347124EBED0DAB410835667
FILE: 12 - You Don't Know What Love Is.flac
Size: 12919289 Hash: 728C0A7111133142DFDCD039C3CA7B8E Accuracy: -m0
Conclusion: CDDA 100%
Signature: 156155DF3CB5D6A39C632FED6E60703D6E47D26E
FILE: 11 - Cross Your Heart.flac
Size: 15834655 Hash: 45A8C0718E94F009A6BA53A62597D2CA Accuracy: -m0
Conclusion: CDDA 100%
Signature: E25385D28E80745889E1E6F09D16F25A29162E85
FILE: 10 - Someone to Watch over Me.flac
Size: 11520589 Hash: 264D5EFCE38BC82D9DD5E5340BEF7A06 Accuracy: -m0
Conclusion: CDDA 100%
Signature: A8E8A482A30820A75C1D382514E2AE30A7865AE5
FILE: 09 - A Foggy Day.flac
Size: 15302648 Hash: D1E1B643F5921992BE4F0E376B0714B7 Accuracy: -m0
Conclusion: CDDA 100%
Signature: A8DBCE14C92183B908EC862766BD3699918AD699
FILE: 08 - Tomorrow Fairly Cloudy.flac
Size: 14261444 Hash: 6C4553974E1510A9EE79FDCA18C255C4 Accuracy: -m0
Conclusion: CDDA 100%
Signature: C7109196640E475BDAF431AADD185173ED7011EF
FILE: 07 - What's New.flac
Size: 9701886 Hash: 990F03860503EF970919A9109CC62DA6 Accuracy: -m0
Conclusion: CDDA 100%
Signature: 61527318070BEE592B6FC88629643C2CC1382F12
FILE: 06 - One More for the Mode.flac
Size: 14278360 Hash: E77ED65B9F18C765380CBB90C1EB4672 Accuracy: -m0
Conclusion: CDDA 100%
Signature: 8E0F07202DA783E3707EC702B0FA2076D084B947
FILE: 05 - Spring Is Here.flac
Size: 10555362 Hash: 925F14C1E17356420295DDD7DA81FF80 Accuracy: -m0
Conclusion: CDDA 100%
Signature: BB75B08576B5A62D9E73106512E5867DA61E6B12
FILE: 04 - On the Square.flac
Size: 17496262 Hash: 29038D8B70D66FD4068A1705CA78B117 Accuracy: -m0
Conclusion: CDDA 100%
Signature: B124B03EBC5D5E2AD0394D5B8D4478D1998D4D3D
FILE: 03 - Double Image.flac
Size: 17743113 Hash: D3AB2247B2773F39AAA6E56767A7BD32 Accuracy: -m0
Conclusion: CDDA 100%
Signature: 9971A59D45D886482BF2F0E9A291F214DF409BED
FILE: 02 - Some Other Spring.flac
Size: 18039272 Hash: 7C5052BDE17062313F1C89696FA79E16 Accuracy: -m0
Conclusion: CDDA 100%
Signature: D434B21DDF2BCE932E203460C9C8107297A32152
FILE: 01 - Minor.flac
Size: 18301332 Hash: 87F9C8C5D80C16E1285ADEC4CC7DAF33 Accuracy: -m0
Conclusion: CDDA 100%
Signature: 891431B213DFE0A159EFE4ABB982AEE6B4C2905F

♦ CD2

Трeклист:


01. Too Late Now [4:22]
02. Tres Chouette [4:30]
03. Imagination [4:39]
04. Dinah [4:02]
05. Love for Sale [3:00]
06. Have You Met Miss Jones [5:21]
07. What's New [4:21]
08. Fascinating Rhythm [4:18]
09. Too Marvelous for Words [4:46]
10. Cherokee [2:36]
11. Everything Happens to Me [4:05]
12. Night and Day [4:23]
13. Someone to Watch over Me [4:01]
14. Motion [5:24]
15. Lee [4:21]
16. Signal [5:43]
17. 'Round About Midnight [5:22]
18. Indian Summer [4:30]

Продолжительность:
01:19:44

Лог создания рипа


X Lossless Decoder version 20170729 (150.3)

XLD extraction logfile from 2018-08-08 14:42:36 -0400

Jimmy Raney / Four Classic Albums Pus

Used drive : TSSTcorp BDDVDW SE-506CB (revision TS02)
Media type : Pressed CD

Ripper mode : XLD Secure Ripper
Disable audio cache : OK for the drive with a cache less than 1375KiB
Make use of C2 pointers : NO
Read offset correction : 6
Max retry count : 20
Gap status : Analyzed, Appended (except HTOA)

TOC of the extracted CD
Track | Start | Length | Start sector | End sector
---------------------------------------------------------
1 | 00:00:00 | 04:22:14 | 0 | 19663
2 | 04:22:14 | 04:29:62 | 19664 | 39900
3 | 08:52:01 | 04:38:64 | 39901 | 60814
4 | 13:30:65 | 04:01:60 | 60815 | 78949
5 | 17:32:50 | 03:00:30 | 78950 | 92479
6 | 20:33:05 | 05:21:36 | 92480 | 116590
7 | 25:54:41 | 04:21:25 | 116591 | 136190
8 | 30:15:66 | 04:18:09 | 136191 | 155549
9 | 34:34:00 | 04:45:59 | 155550 | 176983
10 | 39:19:59 | 02:35:67 | 176984 | 188675
11 | 41:55:51 | 04:04:72 | 188676 | 207047
12 | 46:00:48 | 04:23:01 | 207048 | 226773
13 | 50:23:49 | 04:00:57 | 226774 | 244830
14 | 54:24:31 | 05:23:45 | 244831 | 269100
15 | 59:48:01 | 04:21:30 | 269101 | 288705
16 | 64:09:31 | 05:42:73 | 288706 | 314428
17 | 69:52:29 | 05:21:38 | 314429 | 338541
18 | 75:13:67 | 04:30:07 | 338542 | 358798

AccurateRip Summary (DiscID: 00329170-02a395b6-f512af12)
Track 01 : OK (v2, confidence 5/5)
Track 02 : OK (v2, confidence 6/6)
Track 03 : OK (v2, confidence 6/6)
Track 04 : OK (v2, confidence 6/6)
Track 05 : OK (v2, confidence 6/6)
Track 06 : OK (v2, confidence 6/6)
Track 07 : OK (v2, confidence 6/6)
Track 08 : OK (v2, confidence 6/6)
Track 09 : OK (v2, confidence 6/6)
Track 10 : OK (v2, confidence 6/6)
Track 11 : OK (v2, confidence 6/6)
Track 12 : OK (v2, confidence 6/6)
Track 13 : OK (v2, confidence 6/6)
Track 14 : OK (v2, confidence 6/6)
Track 15 : OK (v2, confidence 6/6)
Track 16 : OK (v2, confidence 6/6)
Track 17 : OK (v2, confidence 6/6)
Track 18 : OK (v2, confidence 6/6)
->All tracks accurately ripped.

All Tracks
Album gain : -3.21 dB
Peak : 0.923340
Statistics
Read error : 0
Jitter error (maybe fixed) : 13
Retry sector count : 2560
Damaged sector count : 0

Track 01
Filename : /Users/jhmac/Music/XLD rips/Jimmy Raney - Four Classic Albums Pus (2012) [FLAC]/01 Too Late Now.flac
Pre-gap length : 00:02:00

Track gain : -0.80 dB
Peak : 0.652618
CRC32 hash (test run) : 04949FB1
CRC32 hash : 04949FB1
CRC32 hash (skip zero) : A47BBE35
AccurateRip v1 signature : 48F160B1
AccurateRip v2 signature : 9C359627
->Accurately ripped (v2, confidence 5/5)
Statistics
Read error : 0
Jitter error (maybe fixed) : 0
Retry sector count : 0
Damaged sector count : 0

Track 02
Filename : /Users/jhmac/Music/XLD rips/Jimmy Raney - Four Classic Albums Pus (2012) [FLAC]/02 Tres Chouette.flac
Pre-gap length : 00:03:58

Track gain : -3.41 dB
Peak : 0.826416
CRC32 hash (test run) : E7EFB925
CRC32 hash : E7EFB925
CRC32 hash (skip zero) : F2B6C0BC
AccurateRip v1 signature : F3B44F0F
AccurateRip v2 signature : C28BE427
->Accurately ripped (v2, confidence 6/6)
Statistics
Read error : 0
Jitter error (maybe fixed) : 0
Retry sector count : 77
Damaged sector count : 0

Track 03
Filename : /Users/jhmac/Music/XLD rips/Jimmy Raney - Four Classic Albums Pus (2012) [FLAC]/03 Imagination.flac
Pre-gap length : 00:03:58

Track gain : -4.61 dB
Peak : 0.885406
CRC32 hash (test run) : FDEA4856
CRC32 hash : FDEA4856
CRC32 hash (skip zero) : B12C9FFD
AccurateRip v1 signature : 19DA1D09
AccurateRip v2 signature : 9EB85D86
->Accurately ripped (v2, confidence 6/6)
Statistics
Read error : 0
Jitter error (maybe fixed) : 2
Retry sector count : 573
Damaged sector count : 0

Track 04
Filename : /Users/jhmac/Music/XLD rips/Jimmy Raney - Four Classic Albums Pus (2012) [FLAC]/04 Dinah.flac
Pre-gap length : 00:03:58

Track gain : -1.87 dB
Peak : 0.923340
CRC32 hash (test run) : 1D026304
CRC32 hash : 1D026304
CRC32 hash (skip zero) : 1F5127B4
AccurateRip v1 signature : 03ECFB8D
AccurateRip v2 signature : 94287259
->Accurately ripped (v2, confidence 6/6)
Statistics
Read error : 0
Jitter error (maybe fixed) : 1
Retry sector count : 0
Damaged sector count : 0

Track 05
Filename : /Users/jhmac/Music/XLD rips/Jimmy Raney - Four Classic Albums Pus (2012) [FLAC]/05 Love For Sale.flac
Pre-gap length : 00:03:58

Track gain : -3.58 dB
Peak : 0.709839
CRC32 hash (test run) : 890F5775
CRC32 hash : 890F5775
CRC32 hash (skip zero) : 69DDCD17
AccurateRip v1 signature : 8DAC159F
AccurateRip v2 signature : 19301A75
->Accurately ripped (v2, confidence 6/6)
Statistics
Read error : 0
Jitter error (maybe fixed) : 0
Retry sector count : 0
Damaged sector count : 0

Track 06
Filename : /Users/jhmac/Music/XLD rips/Jimmy Raney - Four Classic Albums Pus (2012) [FLAC]/06 Have You Met Miss Jones.flac
Pre-gap length : 00:03:58

Track gain : -4.82 dB
Peak : 0.873138
CRC32 hash (test run) : 56C104DE
CRC32 hash : 56C104DE
CRC32 hash (skip zero) : 1217B19D
AccurateRip v1 signature : 9DA0961C
AccurateRip v2 signature : 24B985A7
->Accurately ripped (v2, confidence 6/6)
Statistics
Read error : 0
Jitter error (maybe fixed) : 0
Retry sector count : 184
Damaged sector count : 0

Track 07
Filename : /Users/jhmac/Music/XLD rips/Jimmy Raney - Four Classic Albums Pus (2012) [FLAC]/07 What's New.flac
Pre-gap length : 00:03:58

Track gain : -2.47 dB
Peak : 0.788422
CRC32 hash (test run) : 8ADF34AB
CRC32 hash : 8ADF34AB
CRC32 hash (skip zero) : 072DD554
AccurateRip v1 signature : B9A705FD
AccurateRip v2 signature : B8CCCAA9
->Accurately ripped (v2, confidence 6/6)
Statistics
Read error : 0
Jitter error (maybe fixed) : 2
Retry sector count : 516
Damaged sector count : 0

Track 08
Filename : /Users/jhmac/Music/XLD rips/Jimmy Raney - Four Classic Albums Pus (2012) [FLAC]/08 Fascinating Rhythm.flac
Pre-gap length : 00:03:58

Track gain : -3.43 dB
Peak : 0.857422
CRC32 hash (test run) : 77448E5C
CRC32 hash : 77448E5C
CRC32 hash (skip zero) : 415E3DE8
AccurateRip v1 signature : BBF9411F
AccurateRip v2 signature : E821680D
->Accurately ripped (v2, confidence 6/6)
Statistics
Read error : 0
Jitter error (maybe fixed) : 1
Retry sector count : 293
Damaged sector count : 0

Track 09
Filename : /Users/jhmac/Music/XLD rips/Jimmy Raney - Four Classic Albums Pus (2012) [FLAC]/09 Too Marvelous For Words.flac
Pre-gap length : 00:03:58

Track gain : -2.92 dB
Peak : 0.746124
CRC32 hash (test run) : FE5A4DF0
CRC32 hash : FE5A4DF0
CRC32 hash (skip zero) : 41D37D3F
AccurateRip v1 signature : 881662E5
AccurateRip v2 signature : 0FD7CF9C
->Accurately ripped (v2, confidence 6/6)
Statistics
Read error : 0
Jitter error (maybe fixed) : 0
Retry sector count : 143
Damaged sector count : 0

Track 10
Filename : /Users/jhmac/Music/XLD rips/Jimmy Raney - Four Classic Albums Pus (2012) [FLAC]/10 Cherokee.flac
Pre-gap length : 00:03:58

Track gain : -3.02 dB
Peak : 0.786072
CRC32 hash (test run) : 882EC1DD
CRC32 hash : 882EC1DD
CRC32 hash (skip zero) : 662B843C
AccurateRip v1 signature : 0FDF2C16
AccurateRip v2 signature : 35F90967
->Accurately ripped (v2, confidence 6/6)
Statistics
Read error : 0
Jitter error (maybe fixed) : 0
Retry sector count : 0
Damaged sector count : 0

Track 11
Filename : /Users/jhmac/Music/XLD rips/Jimmy Raney - Four Classic Albums Pus (2012) [FLAC]/11 Everything Happens To Me.flac
Pre-gap length : 00:03:58

Track gain : -3.70 dB
Peak : 0.894318
CRC32 hash (test run) : 0AD11A2B
CRC32 hash : 0AD11A2B
CRC32 hash (skip zero) : 446BCE6A
AccurateRip v1 signature : 5767A46B
AccurateRip v2 signature : 22C29C86
->Accurately ripped (v2, confidence 6/6)
Statistics
Read error : 0
Jitter error (maybe fixed) : 0
Retry sector count : 244
Damaged sector count : 0

Track 12
Filename : /Users/jhmac/Music/XLD rips/Jimmy Raney - Four Classic Albums Pus (2012) [FLAC]/12 Night And Day.flac
Pre-gap length : 00:03:58

Track gain : -1.92 dB
Peak : 0.675537
CRC32 hash (test run) : C6AF5E6C
CRC32 hash : C6AF5E6C
CRC32 hash (skip zero) : 608FCB38
AccurateRip v1 signature : AF20AF5F
AccurateRip v2 signature : 5BA51E4B
->Accurately ripped (v2, confidence 6/6)
Statistics
Read error : 0
Jitter error (maybe fixed) : 1
Retry sector count : 212
Damaged sector count : 0

Track 13
Filename : /Users/jhmac/Music/XLD rips/Jimmy Raney - Four Classic Albums Pus (2012) [FLAC]/13 Someone To Watch Over Me.flac
Pre-gap length : 00:03:58

Track gain : -4.22 dB
Peak : 0.852936
CRC32 hash (test run) : 74AF6F1E
CRC32 hash : 74AF6F1E
CRC32 hash (skip zero) : AA77BD36
AccurateRip v1 signature : 0B24487B
AccurateRip v2 signature : 4189004B
->Accurately ripped (v2, confidence 6/6)
Statistics
Read error : 0
Jitter error (maybe fixed) : 2
Retry sector count : 124
Damaged sector count : 0

Track 14
Filename : /Users/jhmac/Music/XLD rips/Jimmy Raney - Four Classic Albums Pus (2012) [FLAC]/14 Motion.flac
Pre-gap length : 00:03:58

Track gain : -2.51 dB
Peak : 0.800415
CRC32 hash (test run) : AD9976EE
CRC32 hash : AD9976EE
CRC32 hash (skip zero) : 9AF13696
AccurateRip v1 signature : F173784C
AccurateRip v2 signature : 94EE510C
->Accurately ripped (v2, confidence 6/6)
Statistics
Read error : 0
Jitter error (maybe fixed) : 0
Retry sector count : 194
Damaged sector count : 0

Track 15
Filename : /Users/jhmac/Music/XLD rips/Jimmy Raney - Four Classic Albums Pus (2012) [FLAC]/15 Lee.flac
Pre-gap length : 00:03:58

Track gain : -3.56 dB
Peak : 0.765991
CRC32 hash (test run) : 8B91AFCA
CRC32 hash : 8B91AFCA
CRC32 hash (skip zero) : C0C03C61
AccurateRip v1 signature : 0F7FBB78
AccurateRip v2 signature : 93414F6D
->Accurately ripped (v2, confidence 6/6)
Statistics
Read error : 0
Jitter error (maybe fixed) : 0
Retry sector count : 0
Damaged sector count : 0

Track 16
Filename : /Users/jhmac/Music/XLD rips/Jimmy Raney - Four Classic Albums Pus (2012) [FLAC]/16 Signal.flac
Pre-gap length : 00:03:58

Track gain : -2.77 dB
Peak : 0.873077
CRC32 hash (test run) : 1FA9BF27
CRC32 hash : 1FA9BF27
CRC32 hash (skip zero) : AF9DD817
AccurateRip v1 signature : 9C179CEA
AccurateRip v2 signature : 6D4AE83F
->Accurately ripped (v2, confidence 6/6)
Statistics
Read error : 0
Jitter error (maybe fixed) : 2
Retry sector count : 0
Damaged sector count : 0

Track 17
Filename : /Users/jhmac/Music/XLD rips/Jimmy Raney - Four Classic Albums Pus (2012) [FLAC]/17 'Round About Midnight.flac
Pre-gap length : 00:03:58

Track gain : -1.69 dB
Peak : 0.797455
CRC32 hash (test run) : 50F2B03E
CRC32 hash : 50F2B03E
CRC32 hash (skip zero) : 630F0585
AccurateRip v1 signature : F7F2324A
AccurateRip v2 signature : 372123E1
->Accurately ripped (v2, confidence 6/6)
Statistics
Read error : 0
Jitter error (maybe fixed) : 1
Retry sector count : 0
Damaged sector count : 0

Track 18
Filename : /Users/jhmac/Music/XLD rips/Jimmy Raney - Four Classic Albums Pus (2012) [FLAC]/18 Indian Summer.flac
Pre-gap length : 00:03:58

Track gain : -0.98 dB
Peak : 0.671906
CRC32 hash (test run) : 57A078B3
CRC32 hash : 57A078B3
CRC32 hash (skip zero) : 42D15B8C
AccurateRip v1 signature : 249BEED8
AccurateRip v2 signature : A776A7AF
->Accurately ripped (v2, confidence 6/6)
Statistics
Read error : 0
Jitter error (maybe fixed) : 1
Retry sector count : 0
Damaged sector count : 0

No errors occurred

End of status report

-----BEGIN XLD SIGNATURE-----
.cxAM10RwlO6uf6ICyqzTZkKf.Sp5drm_SgtMyiGgTPtNIc3TKshuAu4TgVtcRUIOVRGUd4po2.jEKRwaiFv3mNy3HFAkU7UvlfT908
-----END XLD SIGNATURE-----

Содержание индексной карты (.CUE)


TITLE "Four Classic Albums Plus CD2"
PERFORMER "Jimmy Raney"
REM GENRE "Jazz"
REM DATE "2012"
REM DISCID F512AF12
REM REPLAYGAIN_ALBUM_GAIN -3.21 dB
REM REPLAYGAIN_ALBUM_PEAK 0.923340
FILE "01 - Too Late Now.flac" WAVE
TRACK 01 AUDIO
TITLE "Too Late Now"
REM REPLAYGAIN_TRACK_GAIN -0.80 dB
REM REPLAYGAIN_TRACK_PEAK 0.652618
INDEX 01 00:00:00
TRACK 02 AUDIO
TITLE "Tres Chouette"
REM REPLAYGAIN_TRACK_GAIN -3.41 dB
REM REPLAYGAIN_TRACK_PEAK 0.826416
INDEX 00 04:18:31
FILE "02 - Tres Chouette.flac" WAVE
INDEX 01 00:00:00
TRACK 03 AUDIO
TITLE "Imagination"
REM REPLAYGAIN_TRACK_GAIN -4.61 dB
REM REPLAYGAIN_TRACK_PEAK 0.885406
INDEX 00 04:26:04
FILE "03 - Imagination.flac" WAVE
INDEX 01 00:00:00
TRACK 04 AUDIO
TITLE "Dinah"
REM REPLAYGAIN_TRACK_GAIN -1.87 dB
REM REPLAYGAIN_TRACK_PEAK 0.923340
INDEX 00 04:35:06
FILE "04 - Dinah.flac" WAVE
INDEX 01 00:00:00
TRACK 05 AUDIO
TITLE "Love for Sale"
REM REPLAYGAIN_TRACK_GAIN -3.58 dB
REM REPLAYGAIN_TRACK_PEAK 0.709839
INDEX 00 03:58:02
FILE "05 - Love for Sale.flac" WAVE
INDEX 01 00:00:00
TRACK 06 AUDIO
TITLE "Have You Met Miss Jones"
REM REPLAYGAIN_TRACK_GAIN -4.82 dB
REM REPLAYGAIN_TRACK_PEAK 0.873138
INDEX 00 02:56:47
FILE "06 - Have You Met Miss Jones.flac" WAVE
INDEX 01 00:00:00
TRACK 07 AUDIO
TITLE "What's New"
REM REPLAYGAIN_TRACK_GAIN -2.47 dB
REM REPLAYGAIN_TRACK_PEAK 0.788422
INDEX 00 05:17:53
FILE "07 - What's New.flac" WAVE
INDEX 01 00:00:00
TRACK 08 AUDIO
TITLE "Fascinating Rhythm"
REM REPLAYGAIN_TRACK_GAIN -3.43 dB
REM REPLAYGAIN_TRACK_PEAK 0.857422
INDEX 00 04:17:42
FILE "08 - Fascinating Rhythm.flac" WAVE
INDEX 01 00:00:00
TRACK 09 AUDIO
TITLE "Too Marvelous for Words"
REM REPLAYGAIN_TRACK_GAIN -2.92 dB
REM REPLAYGAIN_TRACK_PEAK 0.746124
INDEX 00 04:14:26
FILE "09 - Too Marvelous for Words.flac" WAVE
INDEX 01 00:00:00
TRACK 10 AUDIO
TITLE "Cherokee"
REM REPLAYGAIN_TRACK_GAIN -3.02 dB
REM REPLAYGAIN_TRACK_PEAK 0.786072
INDEX 00 04:42:01
FILE "10 - Cherokee.flac" WAVE
INDEX 01 00:00:00
TRACK 11 AUDIO
TITLE "Everything Happens to Me"
REM REPLAYGAIN_TRACK_GAIN -3.70 dB
REM REPLAYGAIN_TRACK_PEAK 0.894318
INDEX 00 02:32:09
FILE "11 - Everything Happens to Me.flac" WAVE
INDEX 01 00:00:00
TRACK 12 AUDIO
TITLE "Night and Day"
REM REPLAYGAIN_TRACK_GAIN -1.92 dB
REM REPLAYGAIN_TRACK_PEAK 0.675537
INDEX 00 04:01:14
FILE "12 - Night and Day.flac" WAVE
INDEX 01 00:00:00
TRACK 13 AUDIO
TITLE "Someone to Watch over Me"
REM REPLAYGAIN_TRACK_GAIN -4.22 dB
REM REPLAYGAIN_TRACK_PEAK 0.852936
INDEX 00 04:19:18
FILE "13 - Someone to Watch over Me.flac" WAVE
INDEX 01 00:00:00
TRACK 14 AUDIO
TITLE "Motion"
REM REPLAYGAIN_TRACK_GAIN -2.51 dB
REM REPLAYGAIN_TRACK_PEAK 0.800415
INDEX 00 03:56:74
FILE "14 - Motion.flac" WAVE
INDEX 01 00:00:00
TRACK 15 AUDIO
TITLE "Lee"
REM REPLAYGAIN_TRACK_GAIN -3.56 dB
REM REPLAYGAIN_TRACK_PEAK 0.765991
INDEX 00 05:19:62
FILE "15 - Lee.flac" WAVE
INDEX 01 00:00:00
TRACK 16 AUDIO
TITLE "Signal"
REM REPLAYGAIN_TRACK_GAIN -2.77 dB
REM REPLAYGAIN_TRACK_PEAK 0.873077
INDEX 00 04:17:47
FILE "16 - Signal.flac" WAVE
INDEX 01 00:00:00
TRACK 17 AUDIO
TITLE "'Round About Midnight"
REM REPLAYGAIN_TRACK_GAIN -1.69 dB
REM REPLAYGAIN_TRACK_PEAK 0.797455
INDEX 00 05:39:15
FILE "17 - 'Round About Midnight.flac" WAVE
INDEX 01 00:00:00
TRACK 18 AUDIO
TITLE "Indian Summer"
REM REPLAYGAIN_TRACK_GAIN -0.98 dB
REM REPLAYGAIN_TRACK_PEAK 0.671906
INDEX 00 05:17:55
FILE "18 - Indian Summer.flac" WAVE
INDEX 01 00:00:00

Отчёт auCDtect Task manager


-----------------------

DON'T MODIFY THIS FILE

-----------------------

PERFORMER: auCDtect Task Manager, ver. 1.6.0 RC1 build 1.6.0.1
Copyright (c) 2008-2010 y-soft. All rights reserved
http://y-soft.org

ANALYZER: auCDtect: CD records authenticity detector, version 0.8.2
Copyright (c) 2004 Oleg Berngardt. All rights reserved.
Copyright (c) 2004 Alexander Djourik. All rights reserved.

FILE: 18 - Indian Summer.flac
Size: 13686660 Hash: 9679608C6A6227612F24B045C9A981FF Accuracy: -m0
Conclusion: CDDA 100%
Signature: 30D408D6BCF71CDD7347D58F325D4B8B0E9AAD53
FILE: 17 - 'Round About Midnight.flac
Size: 16472844 Hash: 77A392989EE6F158C9DB2A228644BE0F Accuracy: -m0
Conclusion: CDDA 100%
Signature: C8585AB48BB287EB8FB1B4213FC7BA9BC955295E
FILE: 16 - Signal.flac
Size: 20492127 Hash: 0E30B3FF175E165D432C4AA019301F97 Accuracy: -m0
Conclusion: CDDA 99%
Signature: 3CBBB30EBEC8EF765A04C82E7DCC1A442A1CDF7E
FILE: 15 - Lee.flac
Size: 14633584 Hash: 82571F35D51B7FC1A8F01B9C1096E4B6 Accuracy: -m0
Conclusion: CDDA 100%
Signature: A4318290E20BE44DCC09BEC52B7BE7F136E2ADDD
FILE: 14 - Motion.flac
Size: 18476620 Hash: D8D976810CC041C66C3B37977F9A0C7D Accuracy: -m0
Conclusion: CDDA 100%
Signature: 2F98880146FDB5CFC7DB1C1B783E76DDAB7DE346
FILE: 13 - Someone to Watch over Me.flac
Size: 13657703 Hash: 0886E1EA20D78DBC3220006AF6AB93DE Accuracy: -m0
Conclusion: CDDA 100%
Signature: D43A4E1A4AF696738893A47E19971897D27D1950
FILE: 12 - Night and Day.flac
Size: 15978333 Hash: 4700514576E63FA812D327088CCFBE32 Accuracy: -m0
Conclusion: CDDA 100%
Signature: 0FFBC4250F6A2F3F1CE182BFA491948F26054F9A
FILE: 11 - Everything Happens to Me.flac
Size: 14436649 Hash: 102AEEB6AA2940F5FF26A47BEC93D399 Accuracy: -m0
Conclusion: CDDA 100%
Signature: 16DCD7044F6258B1A17478B0F6A876C3053FD45C
FILE: 10 - Cherokee.flac
Size: 9784623 Hash: 72080E161B860EC97B79FE7D12A58170 Accuracy: -m0
Conclusion: CDDA 100%
Signature: 3554B23D3495A51AF4359E17BA71C9F7D1A95CF5
FILE: 09 - Too Marvelous for Words.flac
Size: 18099324 Hash: B4ED2A40DF4C7C2C52C8BD713D2D7DD3 Accuracy: -m0
Conclusion: CDDA 100%
Signature: A79E73A70B916C915125B36A0D75A5D14AFE057E
FILE: 08 - Fascinating Rhythm.flac
Size: 16261120 Hash: 953FBA80FD659B4DC5238942F9C6C671 Accuracy: -m0
Conclusion: CDDA 99%
Signature: D1E1502EEDE1072E440C1A78E91EFA62BAF40945
FILE: 07 - What's New.flac
Size: 13937080 Hash: 86E5049F1AEABDCFC0ED2DF60228B571 Accuracy: -m0
Conclusion: CDDA 100%
Signature: 6AD6AB0CEA4AB20BD3E101E17D1BF32408D1CA5F
FILE: 06 - Have You Met Miss Jones.flac
Size: 19420615 Hash: DAF1DF3D46D71B46A2E69E6F5D2F8B85 Accuracy: -m0
Conclusion: CDDA 100%
Signature: 33C78496090EE82582CE272173590F6E55C04999
FILE: 05 - Love for Sale.flac
Size: 10315284 Hash: F5BAFC9F0FD62FFA42A23A7612E9DC28 Accuracy: -m0
Conclusion: CDDA 100%
Signature: E67E0516E540A42319FAFB4E11C9462591AB652F
FILE: 04 - Dinah.flac
Size: 14548120 Hash: F354ADB69A997DD36ABA0656AF73F70E Accuracy: -m0
Conclusion: CDDA 100%
Signature: 214CAF2F2C4EE67D136139E3BCD8BFA984A37131
FILE: 03 - Imagination.flac
Size: 14898959 Hash: 7A91B5261316F24E987D597ACAB4D9FC Accuracy: -m0
Conclusion: CDDA 100%
Signature: 202636DB96AD1305033227A90D5EE855F33BE241
FILE: 02 - Tres Chouette.flac
Size: 16188766 Hash: 970948206556D0DC4D1D88DADB444CBE Accuracy: -m0
Conclusion: CDDA 100%
Signature: 613B535AF18E461EA3F88FDDCB338C2B6E97F3A6
FILE: 01 - Too Late Now.flac
Size: 14350870 Hash: 0DF56A4B6088F73DED4FA3EB79307F5A Accuracy: -m0
Conclusion: CDDA 100%
Signature: 00D555E9AAC7955782CF38D9AB0DD2ABE624DA2D

Детали торрента:
Название:Jimmy Raney - Four Classic Albums Plus (1953 - 1956) 2CD, 2012, Avid Jazz [FLAC|Lossless|tracks + .cue] <Cool, Bop, Guitar Jazz>
Дата добавления:29 Сен 2018 07:06:16
Размер:544 MB
Раздают:
Качают:0
Форум:Jazz (Lossless)

All rights reserved © 2015-2019