TORRENTS45.XYZ

Скачать Europe - Live in Sweden 1986 (The Final Countdown Tour) от ALEXnROCK (2006) DVDRip [H.264/1080p-LQ][upscale]


Europe - Live in Sweden 1986 (The Final Countdown Tour) от ALEXnROCK (2006) WEBRip
Жанр: Rock
Год выпуска: 2006

Описание:
Великолепный концерт легендарной группы Europe. Издатели испортили звук фильтрами. Исправил звучание на сколько было возможно. Если у кого то имеется CD этого концерта или имеет желание купить его в сети, для замены звуковой дорожки, то свяжитесь со мной. Да пребудет с нами качественная музыка!. Все лучшее для вас. ALEXnROCK

Продолжительность: 00:58:52
Качество: WEBRip

Видео: AVC/H.264, 1920x1080 (16x9) 5300 kbps
Аудио 1: PCM 2.0, 48 KHz, 1536 kbps
Аудио 2: Dolby AC3 6 ch 48 Hz 448 Kbps
Аудио 3: Mp3 320 Kbps 48 Hz

Треклист:
01. The Final Countdown
02. Wings Of Tomorrow
03. Ninja
04. Carrie
05. On The Loose
06. Drum Solo
07. Cherokee
08. The Time Has Come
09. Open Your Heart
10. Rock The Night
11. Stormwind
12. Dance The Night Away
13. Reprise: The Final Countdown

Mediainfo:


Общее
Уникальный идентификатор : 200590512029183194482577442895480480232 (0x96E853CE5E91389CB1F41A4545B7E1E8)
Полное имя : Europe - Live in Sweden 1986 ALEXnROCK.mkv
Формат : Matroska
Версия формата : Version 4 / Version 2
Размер файла : 3,13 Гбайт
Продолжительность : 58 м. 52 с.
Общий поток : 7607 Кбит/сек
Дата кодирования : UTC 2018-09-28 08:14:13
Программа кодирования : mkvmerge v9.8.0 ('Kuglblids') 64bit
Библиотека кодирования : libebml v1.3.4 + libmatroska v1.4.5

Видео
Идентификатор : 1
Формат : AVC
Формат/Информация : Advanced Video Codec
Профиль формата : High@L4
Настройки формата : CABAC / 4 Ref Frames
Параметр CABAC формата : Да
Параметр RefFrames формата : 4 кадра
Идентификатор кодека : V_MPEG4/ISO/AVC
Продолжительность : 58 м. 52 с.
Битрейт : 5300 Кбит/сек
Ширина : 1920 пикселей
Высота : 1080 пикселей
Соотношение сторон : 16:9
Режим частоты кадров : Постоянный
Частота кадров : 30,000 кадров/сек
Цветовое пространство : YUV
Субдискретизация насыщенности : 4:2:0
Битовая глубина : 8 бит
Тип развёртки : Прогрессивная
Бит/(Пиксели*Кадры) : 0.085
Размер потока : 2,18 Гбайт (70%)
Библиотека кодирования : x264 core 146 r2538 121396c
Настройки программы : cabac=1 / ref=4 / deblock=1:-1:-1 / analyse=0x3:0x113 / me=umh / subme=7 / psy=1 / psy_rd=1.00:0.20 / mixed_ref=1 / me_range=16 / chroma_me=1 / trellis=2 / 8x8dct=1 / cqm=0 / deadzone=21,11 / fast_pskip=0 / chroma_qp_offset=-3 / threads=12 / lookahead_threads=2 / sliced_threads=0 / nr=0 / decimate=0 / interlaced=0 / bluray_compat=0 / constrained_intra=0 / bframes=3 / b_pyramid=2 / b_adapt=2 / b_bias=0 / direct=3 / weightb=1 / open_gop=0 / weightp=2 / keyint=250 / keyint_min=25 / scenecut=40 / intra_refresh=0 / rc_lookahead=50 / rc=2pass / mbtree=1 / bitrate=5300 / ratetol=1.0 / qcomp=0.60 / qpmin=0 / qpmax=69 / qpstep=4 / cplxblur=20.0 / qblur=0.5 / vbv_maxrate=50000 / vbv_bufsize=62500 / nal_hrd=none / filler=0 / ip_ratio=1.40 / aq=1:1.00
Default : Да
Forced : Нет

Аудио #1
Идентификатор : 2
Формат : PCM
Идентификатор кодека : A_PCM/INT/LIT
Продолжительность : 58 м. 52 с.
Вид битрейта : Постоянный
Битрейт : 1536 Кбит/сек
Каналы : 2 канала
Частота : 48,0 КГц
Частота кадров : 32,000 кадра/сек (1500 SPF)
Битовая глубина : 16 бит
Размер потока : 647 Мбайт (20%)
Default : Да
Forced : Нет

Аудио #2
Идентификатор : 3
Формат : AC-3
Формат/Информация : Audio Coding 3
Параметр Endianness формата : Big
Идентификатор кодека : A_AC3
Продолжительность : 58 м. 52 с.
Вид битрейта : Постоянный
Битрейт : 448 Кбит/сек
Каналы : 6 каналов
Расположение каналов : Front: L C R, Side: L R, LFE
Частота : 48,0 КГц
Частота кадров : 31,250 кадров/сек (1536 SPF)
Битовая глубина : 16 бит
Метод сжатия : С потерями
Размер потока : 189 Мбайт (6%)
ServiceKind/String : Complete Main
Default : Нет
Forced : Нет

Аудио #3
Идентификатор : 4
Формат : MPEG Audio
Версия формата : Version 1
Профиль формата : Layer 3
Идентификатор кодека : A_MPEG/L3
Идентификатор кодека/Подсказка : MP3
Продолжительность : 58 м. 52 с.
Вид битрейта : Постоянный
Битрейт : 320 Кбит/сек
Каналы : 2 канала
Частота : 48,0 КГц
Частота кадров : 41,667 кадра/сек (1152 SPF)
Метод сжатия : С потерями
Размер потока : 135 Мбайт (4%)
Библиотека кодирования : LAME3.99r
Настройки программы : -m s -V 4 -q 0 -lowpass 20.5
Default : Нет
Forced : Нет
Скриншоты:

Все одноименные релизы в Клубе
Детали торрента:
Название:Europe - Live in Sweden 1986 (The Final Countdown Tour) от ALEXnROCK (2006) DVDRip [H.264/1080p-LQ][upscale]
Дата добавления:28 Сен 2018 17:43:03
Размер:3,13 GB
Раздают:3
Качают:0
Форум:hand made * video

All rights reserved © 2015-2018