TORRENTS45.XYZ

Скачать Мир Юрского периода 2 / Jurassic World: Fallen Kingdom (2018) BDRip 3D [H.264/1080p] [Вертикальная анаморфная стереопара] [handmade 16:9]


Мир Юрского периода 2 / Jurassic World: Fallen Kingdom (2018) BDRip 3D [H.264/1080p] [Вертикальная анаморфная стереопара] [handmade 16:9] «Жизнь нельзя остановить»
Производство: США / Universal Pictures
Жанр: фантастика, боевик, приключения

Режиссер: Хуан Антонио Байона
Продюсер: Белен Атьенса, Патрик Краули, Томас Хэйслип
Актеры: Брайс Даллас Ховард, Крис Прэтт, Джефф Голдблюм, Тед Левайн, Джеймс Кромуэлл, Тоби Джонс, Б. Д. Вонг, Рейф Сполл, Даниэлла Пинеда, Джеральдин Чаплин

Описание:
На острове Нублар, где не так давно располагался парк развлечений с динозаврами, правит бал дикая природа, но внезапно пробудившийся вулкан угрожает стереть динозавров с лица земли. Бывшая управляющая парком Клэр Диринг переквалифицировалась в защитницу исчезающих видов и пытается сделать всё, чтобы спасти доисторических животных. На неё выходит Илай Миллс — доверенное лицо миллиардера Бенждамина Локвуда, который много лет назад был соратником профессора Хаммонда. Миллс предлагает Клэр, знакомой с системой безопасности парка, поехать на остров и помочь ему поймать нескольких особей, чтобы вывести их на другой безопасный остров. Клэр даже удается уговорить своего бывшего парня, дрессировщика Оуэена, принять участие в спасательной миссии, но по прибытии в парк, выясняется, что у Миллса совсем другие цели.


Возраст: 12+ (зрителям, достигшим 12 лет)
Рейтинг MPAA: PG-13 (детям до 13 лет просмотр нежелателен)
Премьера (мир): 21 мая 2018
Премьера (РФ): 7 июня 2018, «UPI» 3D


Продолжительность: 02:08:17
Качество: BDRip 3D (1080p)
Перевод: Дублированный (iTunes)
Субтитры: Русские (полные), Английские (полные)

Видео: H.264/AVC, 1920x1080 ~10 Mbps,
Аудио 1: AC3, 6 ch, 384 kbps - Русский (iTunes)
Аудио 2: AC3, 6 ch, 640 kbps - Английский

Mediainfo:

Unique ID : 245675790146590719158457288454221789839 (0xB8D36FA34B79FDE58E0653FF92DEFA8F)
Complete name : D:\Temp\Мир Юрского 2 - полный экран.mkv
Format : Matroska
Format version : Version 4 / Version 2
File size : 9.88 GiB
Duration : 2h 8mn
Overall bit rate : 11.0 Mbps
Movie name : JP_II_2018_3D_RMX_BLUEBIRD.Title0
Encoded date : UTC 2018-09-13 00:10:29
Writing application : mkvmerge v9.8.0 ('Kuglblids') 64bit
Writing library : libebml v1.3.4 + libmatroska v1.4.5

Video
ID : 1
Format : AVC
Format/Info : Advanced Video Codec
Format profile : High@L4.1
Format settings, CABAC : Yes
Format settings, ReFrames : 4 frames
Codec ID : V_MPEG4/ISO/AVC
Duration : 2h 8mn
Bit rate : 10 000 Kbps
Width : 1 920 pixels
Height : 1 080 pixels
Display aspect ratio : 16:9
Frame rate mode : Constant
Frame rate : 23.976 fps
Color space : YUV
Chroma subsampling : 4:2:0
Bit depth : 8 bits
Scan type : Progressive
Bits/(Pixel*Frame) : 0.201
Stream size : 8.76 GiB (89%)
Writing library : x264 core 155 r2901M 7d0ff22
Encoding settings : cabac=1 / ref=4 / deblock=1:-3:-3 / analyse=0x3:0x113 / me=umh / subme=10 / psy=1 / psy_rd=1.05:0.10 / mixed_ref=1 / me_range=24 / chroma_me=1 / trellis=2 / 8x8dct=1 / cqm=0 / deadzone=21,11 / fast_pskip=0 / chroma_qp_offset=-3 / threads=5 / lookahead_threads=1 / sliced_threads=0 / nr=0 / decimate=1 / interlaced=0 / bluray_compat=0 / constrained_intra=0 / bframes=6 / b_pyramid=2 / b_adapt=2 / b_bias=0 / direct=1 / weightb=1 / open_gop=0 / weightp=2 / keyint=240 / keyint_min=24 / scenecut=40 / intra_refresh=0 / rc=2pass / mbtree=0 / bitrate=10000 / ratetol=1.0 / qcomp=0.70 / qpmin=3 / qpmax=69 / qpstep=4 / cplxblur=20.0 / qblur=0.5 / ip_ratio=1.40 / pb_ratio=1.30 / aq=2:1.00
Default : Yes
Forced : No

Audio #1
ID : 2
Format : AC-3
Format/Info : Audio Coding 3
Mode extension : CM (complete main)
Format settings, Endianness : Big
Codec ID : A_AC3
Duration : 2h 8mn
Bit rate mode : Constant
Bit rate : 384 Kbps
Channel(s) : 6 channels
Channel positions : Front: L C R, Side: L R, LFE
Sampling rate : 48.0 KHz
Bit depth : 16 bits
Compression mode : Lossy
Stream size : 352 MiB (3%)
Language : Russian
Default : Yes
Forced : No

Audio #2
ID : 3
Format : AC-3
Format/Info : Audio Coding 3
Mode extension : CM (complete main)
Format settings, Endianness : Big
Codec ID : A_AC3
Duration : 2h 8mn
Bit rate mode : Constant
Bit rate : 640 Kbps
Channel(s) : 6 channels
Channel positions : Front: L C R, Side: L R, LFE
Sampling rate : 48.0 KHz
Bit depth : 16 bits
Compression mode : Lossy
Stream size : 587 MiB (6%)
Language : English
Default : No
Forced : No

Text #1
ID : 4
Format : UTF-8
Codec ID : S_TEXT/UTF8
Codec ID/Info : UTF-8 Plain Text
Language : Russian
Default : No
Forced : No

Text #2
ID : 5
Format : UTF-8
Codec ID : S_TEXT/UTF8
Codec ID/Info : UTF-8 Plain Text
Language : English
Default : No
Forced : No

Особенности релиза:

В данном релизе изображение занимает всю площадь экрана, отсутствуют черные полосы сверху и снизу.
Скриншоты:


Релизы фильма "Мир Юрского периода 2 / Jurassic World: Fallen Kingdom" на NNM Club

Смотреть Online

http://37.220.36.15/video/28d2cac9f72686e9/iframe
Детали торрента:
Название:Мир Юрского периода 2 / Jurassic World: Fallen Kingdom (2018) BDRip 3D [H.264/1080p] [Вертикальная анаморфная стереопара] [handmade 16:9]
Дата добавления:28 Сен 2018 15:35:21
Размер:9,88 GB
Раздают:4
Качают:12
Форум:hand made * video

All rights reserved © 2015-2018