TORRENTS45.XYZ

Скачать Манифест / Декларация / Manifest (2018) WEB-DL [H.264/1080p-LQ] (сезон 1, серии 1-6 из 13) (обновляемая) Jaskier [AD]


Манифест / Manifest (2018) WEB-DL [H.264/1080p-LQ] (сезон 1, серии 1-6 из 13) (обновляемая) Jaskier [AD]
Производство: США
Жанр: драма, детектив

Режиссер: Феликс Акала, Дэвид Фрэнкел, Нина Лопес-Коррадо
Актеры: Мелисса Роксбур, Джошуа Даллас, Афина Карканис, Дж.Р. Рамирез, Луна Блэйз Бойд, Джек Мессина, Парвин Каур, Тим Мориарти, Альфредо Нарцисо, Кёртисс Кук и др.

Описание:
Авиарейс Монтего 828 безопасно приземляется после полета, команда и пассажиры выходят наружу и обнаруживают, что за прошедшие несколько часов мир постарел на пять лет, а друзья, коллеги и семьи, поначалу не терявшие надежды увидеть родных живыми, начали жить дальше.


Возраст: 16+ (зрителям, достигшим 16 лет)
Дата мировой премьеры: 24 сентября 2018

Продолжительность: ~00:43:00 серия
Качество видео: WEB-DL
Перевод: Многоголосый закадровый, профессиональный - Jaskier
Субтитры: английские
Реклама: присутствуют аудио вставки рекламы

Видео: AVC/H.264, 1920x1080 (16:9), ~8660 kbps
Аудио #1: AC3, 6 ch, 384 kbps - русский, многоголосый закадровый
Аудио #2: AC3, 6 ch, 384 kbps - английский

Mediainfo:

Общее
Уникальный идентификатор : 249798351298118794923818292182020282572 (0xBBED699871AA4CF6ABB44A30779858CC)
Полное имя : E:\Manifest. Season 1 (WEB-DL l 1080p l Jaskier)\Manifest.S01E01.1080p.WEB-DL.DD5.1.H.264-Jaskier.mkv
Формат : Matroska
Версия формата : Version 2
Размер файла : 2,86 Гбайт
Продолжительность : 42 м. 32 с.
Режим общего битрейта : Переменный
Общий поток : 9620 Кбит/сек
Дата кодирования : UTC 2018-09-26 21:06:54
Программа кодирования : mkvmerge v7.8.0 ('River Man') 32bit built on Apr 3 2015 12:11:22
Библиотека кодирования : libebml v1.3.1 + libmatroska v1.4.2

Видео
Идентификатор : 1
Формат : AVC
Формат/Информация : Advanced Video Codec
Профиль формата : High@L4
Настройки формата : CABAC / 4 Ref Frames
Параметр CABAC формата : Да
Параметр RefFrames формата : 4 кадра
Идентификатор кодека : V_MPEG4/ISO/AVC
Продолжительность : 42 м. 32 с.
Вид битрейта : Переменный
Битрейт : 8661 Кбит/сек
Максимальный битрейт : 15,0 Мбит/сек
Ширина : 1920 пикселей
Высота : 1080 пикселей
Соотношение сторон : 16:9
Режим частоты кадров : Постоянный
Частота кадров : 23,976 (24000/1001) кадра/сек
Цветовое пространство : YUV
Субдискретизация насыщенности : 4:2:0
Битовая глубина : 8 бит
Тип развёртки : Прогрессивная
Бит/(Пиксели*Кадры) : 0.174
Размер потока : 2,57 Гбайт (90%)
Язык : English
Default : Да
Forced : Нет
Цветовой диапазон : Limited
Основные цвета : BT.709
Характеристики трансфера : BT.709
Коэффициенты матрицы : BT.709

Аудио #1
Идентификатор : 2
Формат : AC-3
Формат/Информация : Audio Coding 3
Коммерческое название : Dolby Digital
Идентификатор кодека : A_AC3
Продолжительность : 42 м. 32 с.
Вид битрейта : Постоянный
Битрейт : 384 Кбит/сек
Каналы : 6 каналов
Channel layout : L R C LFE Ls Rs
Частота : 48,0 КГц
Частота кадров : 31,250 кадров/сек (1536 SPF)
Битовая глубина : 16 бит
Метод сжатия : С потерями
Размер потока : 117 Мбайт (4%)
Заголовок : Jaskier
Язык : Russian
ServiceKind/String : Complete Main
Default : Да
Forced : Нет

Аудио #2
Идентификатор : 3
Формат : AC-3
Формат/Информация : Audio Coding 3
Коммерческое название : Dolby Digital
Идентификатор кодека : A_AC3
Продолжительность : 42 м. 32 с.
Вид битрейта : Постоянный
Битрейт : 384 Кбит/сек
Каналы : 6 каналов
Channel layout : L R C LFE Ls Rs
Частота : 48,0 КГц
Частота кадров : 31,250 кадров/сек (1536 SPF)
Битовая глубина : 16 бит
Метод сжатия : С потерями
Размер потока : 117 Мбайт (4%)
Язык : English
ServiceKind/String : Complete Main
Default : Нет
Forced : Нет

Текст
Идентификатор : 4
Формат : UTF-8
Идентификатор кодека : S_TEXT/UTF8
Идентификатор кодека/Информация : UTF-8 Plain Text
Язык : English
Default : Нет
Forced : Нет

Внимание! Раздача ведётся путём добавления новых серий

Внимание! Раздача ведётся путём добавления новых серий; при каждом добавлении создаётся новый торрент.
Чтобы начать докачку новой серии, пользователям необходимо сделать следующее:
1. Остановить скачивание;
2. Удалить старый торрент у себя из клиента (старые серии удалять не надо);
3. Скачать новый торрент и запустить его у себя в клиенте вместо старого, при этом указать клиенту путь в старую папку куда и должно происходить скачивание новых серий. Ваш клиент при этом должен произвести хеширование (проверку) старой папки и будет докачивать только те серии, которых у вас ещё нет. Старые серии при этом не удаляются, а продолжают раздаваться! Eсли вы уже удалили старые серии, то предотвратить повторную закачку старых серий можно, отжав галочку в соответствующих местах при запуске нового торрента.
Скриншоты:



Все одноименные релизы в Клубе

Смотреть Online

http://moonwalk.cc/serial/55aa69f3f0c20864d847dc59b3db67df/iframe
Детали торрента:
Название:Манифест / Декларация / Manifest (2018) WEB-DL [H.264/1080p-LQ] (сезон 1, серии 1-6 из 13) (обновляемая) Jaskier [AD]
Дата добавления:08 Ноя 2018 23:18:41
Размер:13,7 GB
Раздают:18
Качают:9
Форум:Зарубежные сериалы

All rights reserved © 2015-2018