TORRENTS45.XYZ

Скачать VA - The Ambient Cookbook II (2002) Fax +49-69/450464 [FLAC|Lossless|tracks+.cue] <Abstract, Downtempo, Ambient, Experimental>


The Ambient Cookbook II

Жанр: Abstract, Downtempo, Ambient, Experimental • Страна: Germany • Год: 2002 • Тип издания: CD
Аудиокодек: FLAC • Тип рипа: tracks+.cue • Продолжительность: 05:02:00 • Издание: Fax +49-69/450464 - PKPWPS 6
Треклист:

CD1

Продолжительность: 01:07:46
Треклист:

01. Silence - Omid/Hope (00:57)
02. Air - Clearing Your Head (01:55)
03. Escape - Trip From Mars (02:37)
04. Pete Namlook & Hubertus Held - Missing You (06:47)
05. Psychonavigation - Telepathy II (08:19)
06. Sequential - Sequenchill (01:36)
07. Pete Namlook - Noise Atoms (03:31)
08. Pete Namlook & The Higher Intelligence Agency - Begend (07:05)
09. Jet Chamber - Clearing Your Head (01:16)
10. Syn - The Flight (07:13)
11. Virtual Vices - We Don't Mind The Rain (09:10)
12. Namlook - The Real World (07:59)
13. Dreamfish - Fishology (09:21)

EAC


Exact Audio Copy V1.0 beta 3 from 29. August 2011

EAC extraction logfile from 20. December 2016, 20:51

Various Artists / The Ambient Cookbook II - CD 1 Of 4

Used drive : TSSTcorpCDDVDW SH-S203N Adapter: 3 ID: 0

Read mode : Secure
Utilize accurate stream : Yes
Defeat audio cache : Yes
Make use of C2 pointers : No

Read offset correction : 6
Overread into Lead-In and Lead-Out : No
Fill up missing offset samples with silence : Yes
Delete leading and trailing silent blocks : No
Null samples used in CRC calculations : Yes
Used interface : Native Win32 interface for Win NT & 2000
Gap handling : Appended to previous track

Used output format : User Defined Encoder
Selected bitrate : 128 kBit/s
Quality : High
Add ID3 tag : No
Command line compressor : C:\Program Files\Exact Audio Copy\Flac\flac.exe
Additional command line options : -8 -V -T "ARTIST=%artist%" -T "TITLE=%title%" -T "ALBUM=%albumtitle%" -T "DATE=%year%" -T "TRACKNUMBER=%tracknr%" -T "GENRE=%genre%" -T "PERFORMER=%albuminterpret%" -T "COMPOSER=%composer%" %haslyrics%--tag-from-file=LYRICS="%lyricsfile%"%haslyrics% -T "ALBUMARTIST=%albumartist%" -T "DISCNUMBER=%cdnumber%" -T "TOTALDISCS=%totalcds%" -T "TOTALTRACKS=%numtracks%" -T "COMMENT=%comment%" %source% -o %dest%

TOC of the extracted CD

Track | Start | Length | Start sector | End sector
---------------------------------------------------------
1 | 0:00.00 | 0:56.49 | 0 | 4248
2 | 0:56.49 | 1:55.37 | 4249 | 12910
3 | 2:52.11 | 2:37.14 | 12911 | 24699
4 | 5:29.25 | 6:47.00 | 24700 | 55224
5 | 12:16.25 | 8:18.53 | 55225 | 92627
6 | 20:35.03 | 1:36.31 | 92628 | 99858
7 | 22:11.34 | 3:30.44 | 99859 | 115652
8 | 25:42.03 | 7:05.20 | 115653 | 147547
9 | 32:47.23 | 1:16.29 | 147548 | 153276
10 | 34:03.52 | 7:13.01 | 153277 | 185752
11 | 41:16.53 | 9:09.74 | 185753 | 227001
12 | 50:26.52 | 7:58.72 | 227002 | 262923
13 | 58:25.49 | 9:21.32 | 262924 | 305030

Track 1

Filename D:\My Rips\Various Artists - The Ambient Cookbook II [FLAC}\CD1\01 - Silence - Omid,Hope.wav

Pre-gap length 0:00:02.00

Peak level 86.2 %
Extraction speed 2.9 X
Track quality 100.0 %
Test CRC 0791064C
Copy CRC 0791064C
Accurately ripped (confidence 7) [FD2D6A47] (AR v2)
Copy OK

Track 2

Filename D:\My Rips\Various Artists - The Ambient Cookbook II [FLAC}\CD1\02 - Air - Clearing Your Head.wav

Peak level 88.5 %
Extraction speed 2.8 X
Track quality 99.9 %
Test CRC 720ADF73
Copy CRC 720ADF73
Accurately ripped (confidence 7) [4B95C32A] (AR v2)
Copy OK

Track 3

Filename D:\My Rips\Various Artists - The Ambient Cookbook II [FLAC}\CD1\03 - Escape - Trip From Mars.wav

Peak level 99.3 %
Extraction speed 4.5 X
Track quality 100.0 %
Test CRC 0D8FBF40
Copy CRC 0D8FBF40
Accurately ripped (confidence 7) [12F5636B] (AR v2)
Copy OK

Track 4

Filename D:\My Rips\Various Artists - The Ambient Cookbook II [FLAC}\CD1\04 - Pete Namlook & Hubertus Held - Missing You.wav

Peak level 95.2 %
Extraction speed 4.8 X
Track quality 99.9 %
Test CRC 83B4C23F
Copy CRC 83B4C23F
Accurately ripped (confidence 7) [B6FCED96] (AR v2)
Copy OK

Track 5

Filename D:\My Rips\Various Artists - The Ambient Cookbook II [FLAC}\CD1\05 - Psychonavigation - Telepathy II.wav

Peak level 99.9 %
Extraction speed 6.4 X
Track quality 100.0 %
Test CRC D9256BC2
Copy CRC D9256BC2
Accurately ripped (confidence 7) [28AD00F9] (AR v2)
Copy OK

Track 6

Filename D:\My Rips\Various Artists - The Ambient Cookbook II [FLAC}\CD1\06 - Sequential - Sequenchill.wav

Peak level 89.4 %
Extraction speed 5.2 X
Track quality 100.0 %
Test CRC 848DE8DE
Copy CRC 848DE8DE
Accurately ripped (confidence 7) [4B2B2B96] (AR v2)
Copy OK

Track 7

Filename D:\My Rips\Various Artists - The Ambient Cookbook II [FLAC}\CD1\07 - Pete Namlook - Noise Atoms.wav

Peak level 93.3 %
Extraction speed 6.4 X
Track quality 100.0 %
Test CRC A1319DCA
Copy CRC A1319DCA
Accurately ripped (confidence 7) [3EB2B1C5] (AR v2)
Copy OK

Track 8

Filename D:\My Rips\Various Artists - The Ambient Cookbook II [FLAC}\CD1\08 - Pete Namlook & The Higher Intelligence Agency - Begend.wav

Peak level 81.8 %
Extraction speed 6.4 X
Track quality 99.9 %
Test CRC DEE7ED31
Copy CRC DEE7ED31
Accurately ripped (confidence 7) [4652FD28] (AR v2)
Copy OK

Track 9

Filename D:\My Rips\Various Artists - The Ambient Cookbook II [FLAC}\CD1\09 - Jet Chamber - Clearing Your Head.wav

Peak level 70.8 %
Extraction speed 5.4 X
Track quality 100.0 %
Test CRC 6477C1DF
Copy CRC 6477C1DF
Accurately ripped (confidence 7) [DE7FA4F3] (AR v2)
Copy OK

Track 10

Filename D:\My Rips\Various Artists - The Ambient Cookbook II [FLAC}\CD1\10 - Syn - The Flight.wav

Peak level 88.7 %
Extraction speed 7.9 X
Track quality 100.0 %
Test CRC 80611333
Copy CRC 80611333
Accurately ripped (confidence 7) [BCC27FE1] (AR v2)
Copy OK

Track 11

Filename D:\My Rips\Various Artists - The Ambient Cookbook II [FLAC}\CD1\11 - Virtual Vices - We Don't Mind The Rain.wav

Peak level 70.6 %
Extraction speed 8.6 X
Track quality 100.0 %
Test CRC 21FE4D2F
Copy CRC 21FE4D2F
Accurately ripped (confidence 7) [A0B52A3B] (AR v2)
Copy OK

Track 12

Filename D:\My Rips\Various Artists - The Ambient Cookbook II [FLAC}\CD1\12 - Namlook - The Real World.wav

Peak level 77.1 %
Extraction speed 9.0 X
Track quality 100.0 %
Test CRC 2E14FD4B
Copy CRC 2E14FD4B
Accurately ripped (confidence 7) [3A2B8390] (AR v2)
Copy OK

Track 13

Filename D:\My Rips\Various Artists - The Ambient Cookbook II [FLAC}\CD1\13 - Dreamfish - Fishology.wav

Peak level 92.2 %
Extraction speed 8.5 X
Track quality 99.9 %
Test CRC DC1CB8EC
Copy CRC DC1CB8EC
Accurately ripped (confidence 7) [26B6E805] (AR v2)
Copy OK

All tracks accurately ripped

No errors occurred

End of status report

---- CUETools DB Plugin V2.1.3

[CTDB TOCID: RVlWaD9iwIzRoGrZsk5PEuRTq0Q-] found, Submit result: RVlWaD9iwIzRoGrZsk5PEuRTq0Q- has been confirmed
[dfa4e864] (09/10) Accurately ripped
[7d4b2817] (01/10) No match

==== Log checksum 598E6D946262AB4A47AE49EC2559E6BC2672C272F651B0F94218CE8EA4012BF0 ====

CUE


REM GENRE Electronic
REM DATE 2002
REM DISCID AE0FE30D
REM COMMENT "ExactAudioCopy v1.0b3"
PERFORMER "Various Artists"
TITLE "The Ambient Cookbook II - CD 1 Of 4"
FILE "01 - Silence - Omid,Hope.wav" WAVE
TRACK 01 AUDIO
TITLE "Omid/Hope"
PERFORMER "Silence"
FLAGS DCP
INDEX 01 00:00:00
FILE "02 - Air - Clearing Your Head.wav" WAVE
TRACK 02 AUDIO
TITLE "Clearing Your Head"
PERFORMER "Air"
FLAGS DCP
INDEX 01 00:00:00
FILE "03 - Escape - Trip From Mars.wav" WAVE
TRACK 03 AUDIO
TITLE "Trip From Mars"
PERFORMER "Escape"
FLAGS DCP
INDEX 01 00:00:00
FILE "04 - Pete Namlook & Hubertus Held - Missing You.wav" WAVE
TRACK 04 AUDIO
TITLE "Missing You"
PERFORMER "Pete Namlook & Hubertus Held"
FLAGS DCP
INDEX 01 00:00:00
FILE "05 - Psychonavigation - Telepathy II.wav" WAVE
TRACK 05 AUDIO
TITLE "Telepathy II"
PERFORMER "Psychonavigation"
FLAGS DCP
INDEX 01 00:00:00
FILE "06 - Sequential - Sequenchill.wav" WAVE
TRACK 06 AUDIO
TITLE "Sequenchill"
PERFORMER "Sequential"
FLAGS DCP
INDEX 01 00:00:00
FILE "07 - Pete Namlook - Noise Atoms.wav" WAVE
TRACK 07 AUDIO
TITLE "Noise Atoms"
PERFORMER "Pete Namlook"
FLAGS DCP
INDEX 01 00:00:00
FILE "08 - Pete Namlook & The Higher Intelligence Agency - Begend.wav" WAVE
TRACK 08 AUDIO
TITLE "Begend"
PERFORMER "Pete Namlook & The Higher Intelligence Agency"
FLAGS DCP
INDEX 01 00:00:00
FILE "09 - Jet Chamber - Clearing Your Head.wav" WAVE
TRACK 09 AUDIO
TITLE "Clearing Your Head"
PERFORMER "Jet Chamber"
FLAGS DCP
INDEX 01 00:00:00
FILE "10 - Syn - The Flight.wav" WAVE
TRACK 10 AUDIO
TITLE "The Flight"
PERFORMER "Syn"
FLAGS DCP
INDEX 01 00:00:00
FILE "11 - Virtual Vices - We Don't Mind The Rain.wav" WAVE
TRACK 11 AUDIO
TITLE "We Don't Mind The Rain"
PERFORMER "Virtual Vices"
FLAGS DCP
INDEX 01 00:00:00
FILE "12 - Namlook - The Real World.wav" WAVE
TRACK 12 AUDIO
TITLE "The Real World"
PERFORMER "Namlook"
FLAGS DCP
INDEX 01 00:00:00
FILE "13 - Dreamfish - Fishology.wav" WAVE
TRACK 13 AUDIO
TITLE "Fishology"
PERFORMER "Dreamfish"
FLAGS DCP
INDEX 01 00:00:00

CD2

Продолжительность: 01:17:58
Треклист:

01. Air - Elle A Du Shell (05:01)
02. From Within - Silent Intelligence - Parts 5-6 (04:41)
03. The Fires Of Ork - In Heaven (05:45)
04. Silence - Dream Time (03:30)
05. Syn - Night Time Pleasures (02:05)
06. The Dark Side Of The Moog - Set The Controls For The Heart Of The Mother - Part 6 (03:50)
07. Psychonavigation - Telepathy II (01:53)
08. Shades Of Orion - Betelgeuzian Ritual (02:21)
09. Ambiant Otaku - Magnetic Field (17:01)
10. 2350 Broadway - Morning Spirit (02:51)
11. Move D & Namlook - False Decodings (02:52)
12. Koolfang - Counter (02:03)
13. Pete Namlook - Environmental Observation Post (04:56)
14. Jet Chamber - Tightness (00:45)
15. Air - Est-Ce Que L'Amour Fait Mal ? (12:00)
16. Air - Je Suis Triste Et Seul Ici (06:24)

EAC


Exact Audio Copy V1.0 beta 3 from 29. August 2011

EAC extraction logfile from 20. December 2016, 21:17

Various Artists / The Ambient Cookbook II - CD 2 Of 4

Used drive : TSSTcorpCDDVDW SH-S203N Adapter: 3 ID: 0

Read mode : Secure
Utilize accurate stream : Yes
Defeat audio cache : Yes
Make use of C2 pointers : No

Read offset correction : 6
Overread into Lead-In and Lead-Out : No
Fill up missing offset samples with silence : Yes
Delete leading and trailing silent blocks : No
Null samples used in CRC calculations : Yes
Used interface : Native Win32 interface for Win NT & 2000
Gap handling : Appended to previous track

Used output format : User Defined Encoder
Selected bitrate : 128 kBit/s
Quality : High
Add ID3 tag : No
Command line compressor : C:\Program Files\Exact Audio Copy\Flac\flac.exe
Additional command line options : -8 -V -T "ARTIST=%artist%" -T "TITLE=%title%" -T "ALBUM=%albumtitle%" -T "DATE=%year%" -T "TRACKNUMBER=%tracknr%" -T "GENRE=%genre%" -T "PERFORMER=%albuminterpret%" -T "COMPOSER=%composer%" %haslyrics%--tag-from-file=LYRICS="%lyricsfile%"%haslyrics% -T "ALBUMARTIST=%albumartist%" -T "DISCNUMBER=%cdnumber%" -T "TOTALDISCS=%totalcds%" -T "TOTALTRACKS=%numtracks%" -T "COMMENT=%comment%" %source% -o %dest%

TOC of the extracted CD

Track | Start | Length | Start sector | End sector
---------------------------------------------------------
1 | 0:00.00 | 5:01.23 | 0 | 22597
2 | 5:01.23 | 4:40.47 | 22598 | 43644
3 | 9:41.70 | 5:44.71 | 43645 | 69515
4 | 15:26.66 | 3:30.31 | 69516 | 85296
5 | 18:57.22 | 2:04.72 | 85297 | 94668
6 | 21:02.19 | 3:49.46 | 94669 | 111889
7 | 24:51.65 | 1:52.71 | 111890 | 120360
8 | 26:44.61 | 2:21.02 | 120361 | 130937
9 | 29:05.63 | 17:01.19 | 130938 | 207531
10 | 46:07.07 | 2:51.36 | 207532 | 220392
11 | 48:58.43 | 2:51.56 | 220393 | 233273
12 | 51:50.24 | 2:03.04 | 233274 | 242502
13 | 53:53.28 | 4:55.67 | 242503 | 264694
14 | 58:49.20 | 0:44.46 | 264695 | 268040
15 | 59:33.66 | 12:00.18 | 268041 | 322058
16 | 71:34.09 | 6:23.59 | 322059 | 350842

Track 1

Filename D:\My Rips\Various Artists - The Ambient Cookbook II [FLAC}\CD2\01 - Air - Elle A Du Shell.wav

Pre-gap length 0:00:02.00

Peak level 80.9 %
Extraction speed 5.0 X
Track quality 100.0 %
Test CRC ADAB1519
Copy CRC ADAB1519
Accurately ripped (confidence 7) [4C6E9954] (AR v2)
Copy OK

Track 2

Filename D:\My Rips\Various Artists - The Ambient Cookbook II [FLAC}\CD2\02 - From Within - Silent Intelligence - Parts 5-6.wav

Peak level 93.5 %
Extraction speed 5.5 X
Track quality 100.0 %
Test CRC ECBC28D1
Copy CRC ECBC28D1
Accurately ripped (confidence 7) [9253D515] (AR v2)
Copy OK

Track 3

Filename D:\My Rips\Various Artists - The Ambient Cookbook II [FLAC}\CD2\03 - The Fires Of Ork - In Heaven.wav

Peak level 95.8 %
Extraction speed 5.2 X
Track quality 99.9 %
Test CRC 2F7ABB97
Copy CRC 2F7ABB97
Accurately ripped (confidence 7) [B6613B5A] (AR v2)
Copy OK

Track 4

Filename D:\My Rips\Various Artists - The Ambient Cookbook II [FLAC}\CD2\04 - Silence - Dream Time.wav

Peak level 94.8 %
Extraction speed 6.1 X
Track quality 100.0 %
Test CRC B9A8402C
Copy CRC B9A8402C
Accurately ripped (confidence 7) [059DFFD4] (AR v2)
Copy OK

Track 5

Filename D:\My Rips\Various Artists - The Ambient Cookbook II [FLAC}\CD2\05 - Syn - Night Time Pleasures.wav

Peak level 59.0 %
Extraction speed 5.7 X
Track quality 100.0 %
Test CRC CA2DB231
Copy CRC CA2DB231
Accurately ripped (confidence 7) [3B09B19B] (AR v2)
Copy OK

Track 6

Filename D:\My Rips\Various Artists - The Ambient Cookbook II [FLAC}\CD2\06 - The Dark Side Of The Moog - Set The Controls For The Heart Of The Mother - Part 6.wav

Peak level 88.5 %
Extraction speed 6.7 X
Track quality 100.0 %
Test CRC 7C400C21
Copy CRC 7C400C21
Accurately ripped (confidence 7) [0FFC1EA8] (AR v2)
Copy OK

Track 7

Filename D:\My Rips\Various Artists - The Ambient Cookbook II [FLAC}\CD2\07 - Psychonavigation - Telepathy II.wav

Peak level 83.8 %
Extraction speed 6.0 X
Track quality 100.0 %
Test CRC D9E7C3A8
Copy CRC D9E7C3A8
Accurately ripped (confidence 7) [55B7B2E4] (AR v2)
Copy OK

Track 8

Filename D:\My Rips\Various Artists - The Ambient Cookbook II [FLAC}\CD2\08 - Shades Of Orion - Betelgeuzian Ritual.wav

Peak level 68.8 %
Extraction speed 6.4 X
Track quality 100.0 %
Test CRC 600474D4
Copy CRC 600474D4
Accurately ripped (confidence 7) [8AF8BCC6] (AR v2)
Copy OK

Track 9

Filename D:\My Rips\Various Artists - The Ambient Cookbook II [FLAC}\CD2\09 - Ambiant Otaku - Magnetic Field.wav

Peak level 92.9 %
Extraction speed 8.1 X
Track quality 99.9 %
Test CRC 0DCF2757
Copy CRC 0DCF2757
Accurately ripped (confidence 7) [B644123D] (AR v2)
Copy OK

Track 10

Filename D:\My Rips\Various Artists - The Ambient Cookbook II [FLAC}\CD2\10 - 2350 Broadway - Morning Spirit.wav

Peak level 87.2 %
Extraction speed 7.8 X
Track quality 100.0 %
Test CRC 272D1D60
Copy CRC 272D1D60
Accurately ripped (confidence 7) [F96AB852] (AR v2)
Copy OK

Track 11

Filename D:\My Rips\Various Artists - The Ambient Cookbook II [FLAC}\CD2\11 - Move D & Namlook - False Decodings.wav

Peak level 99.2 %
Extraction speed 8.1 X
Track quality 100.0 %
Test CRC 5551AD9C
Copy CRC 5551AD9C
Accurately ripped (confidence 7) [181325EA] (AR v2)
Copy OK

Track 12

Filename D:\My Rips\Various Artists - The Ambient Cookbook II [FLAC}\CD2\12 - Koolfang - Counter.wav

Peak level 95.0 %
Extraction speed 7.5 X
Track quality 100.0 %
Test CRC CD365756
Copy CRC CD365756
Accurately ripped (confidence 7) [70E95A78] (AR v2)
Copy OK

Track 13

Filename D:\My Rips\Various Artists - The Ambient Cookbook II [FLAC}\CD2\13 - Pete Namlook - Environmental Observation Post.wav

Peak level 93.7 %
Extraction speed 9.0 X
Track quality 100.0 %
Test CRC 1D3B8515
Copy CRC 1D3B8515
Accurately ripped (confidence 7) [60B7BD04] (AR v2)
Copy OK

Track 14

Filename D:\My Rips\Various Artists - The Ambient Cookbook II [FLAC}\CD2\14 - Jet Chamber - Tightness.wav

Peak level 57.7 %
Extraction speed 5.5 X
Track quality 100.0 %
Test CRC 298F9785
Copy CRC 298F9785
Accurately ripped (confidence 7) [F175A7FE] (AR v2)
Copy OK

Track 15

Filename D:\My Rips\Various Artists - The Ambient Cookbook II [FLAC}\CD2\15 - Air - Est-Ce Que L'Amour Fait Mal.wav

Peak level 87.4 %
Extraction speed 10.1 X
Track quality 100.0 %
Test CRC 14979C2A
Copy CRC 14979C2A
Accurately ripped (confidence 7) [3DA9DAC1] (AR v2)
Copy OK

Track 16

Filename D:\My Rips\Various Artists - The Ambient Cookbook II [FLAC}\CD2\16 - Air - Je Suis Triste Et Seul Ici.wav

Peak level 100.0 %
Extraction speed 8.7 X
Track quality 99.9 %
Test CRC 19257516
Copy CRC 19257516
Accurately ripped (confidence 7) [E2C08B3E] (AR v2)
Copy OK

All tracks accurately ripped

No errors occurred

End of status report

---- CUETools DB Plugin V2.1.3

[CTDB TOCID: l1ja4ZGVmeEpkSourDVk3a2zZFY-] found, Submit result: l1ja4ZGVmeEpkSourDVk3a2zZFY- has been confirmed
[a38aa567] (09/10) Accurately ripped
[84ce61f1] (01/10) No match

==== Log checksum A9559A783AC808979DF07F7AB95A15F2E82DFE92ACE5DBA8190B2042F779D858 ====

CUE


REM GENRE Electronic
REM DATE 2002
REM DISCID E7124510
REM COMMENT "ExactAudioCopy v1.0b3"
PERFORMER "Various Artists"
TITLE "The Ambient Cookbook II - CD 2 Of 4"
FILE "01 - Air - Elle A Du Shell.wav" WAVE
TRACK 01 AUDIO
TITLE "Elle A Du Shell"
PERFORMER "Air"
FLAGS DCP
INDEX 01 00:00:00
FILE "02 - From Within - Silent Intelligence - Parts 5-6.wav" WAVE
TRACK 02 AUDIO
TITLE "Silent Intelligence - Parts 5-6"
PERFORMER "From Within"
FLAGS DCP
INDEX 01 00:00:00
FILE "03 - The Fires Of Ork - In Heaven.wav" WAVE
TRACK 03 AUDIO
TITLE "In Heaven"
PERFORMER "The Fires Of Ork"
FLAGS DCP
INDEX 01 00:00:00
FILE "04 - Silence - Dream Time.wav" WAVE
TRACK 04 AUDIO
TITLE "Dream Time"
PERFORMER "Silence"
FLAGS DCP
INDEX 01 00:00:00
FILE "05 - Syn - Night Time Pleasures.wav" WAVE
TRACK 05 AUDIO
TITLE "Night Time Pleasures"
PERFORMER "Syn"
FLAGS DCP
INDEX 01 00:00:00
FILE "06 - The Dark Side Of The Moog - Set The Controls For The Heart Of The Mother - Part 6.wav" WAVE
TRACK 06 AUDIO
TITLE "Set The Controls For The Heart Of The Mother - Part 6"
PERFORMER "The Dark Side Of The Moog"
FLAGS DCP
INDEX 01 00:00:00
FILE "07 - Psychonavigation - Telepathy II.wav" WAVE
TRACK 07 AUDIO
TITLE "Telepathy II"
PERFORMER "Psychonavigation"
FLAGS DCP
INDEX 01 00:00:00
FILE "08 - Shades Of Orion - Betelgeuzian Ritual.wav" WAVE
TRACK 08 AUDIO
TITLE "Betelgeuzian Ritual"
PERFORMER "Shades Of Orion"
FLAGS DCP
INDEX 01 00:00:00
FILE "09 - Ambiant Otaku - Magnetic Field.wav" WAVE
TRACK 09 AUDIO
TITLE "Magnetic Field"
PERFORMER "Ambiant Otaku"
FLAGS DCP
INDEX 01 00:00:00
FILE "10 - 2350 Broadway - Morning Spirit.wav" WAVE
TRACK 10 AUDIO
TITLE "Morning Spirit"
PERFORMER "2350 Broadway"
FLAGS DCP
INDEX 01 00:00:00
FILE "11 - Move D & Namlook - False Decodings.wav" WAVE
TRACK 11 AUDIO
TITLE "False Decodings"
PERFORMER "Move D & Namlook"
FLAGS DCP
INDEX 01 00:00:00
FILE "12 - Koolfang - Counter.wav" WAVE
TRACK 12 AUDIO
TITLE "Counter"
PERFORMER "Koolfang"
FLAGS DCP
INDEX 01 00:00:00
FILE "13 - Pete Namlook - Environmental Observation Post.wav" WAVE
TRACK 13 AUDIO
TITLE "Environmental Observation Post"
PERFORMER "Pete Namlook"
FLAGS DCP
INDEX 01 00:00:00
FILE "14 - Jet Chamber - Tightness.wav" WAVE
TRACK 14 AUDIO
TITLE "Tightness"
PERFORMER "Jet Chamber"
FLAGS DCP
INDEX 01 00:00:00
FILE "15 - Air - Est-Ce Que L'Amour Fait Mal.wav" WAVE
TRACK 15 AUDIO
TITLE "Est-Ce Que L'Amour Fait Mal ?"
PERFORMER "Air"
FLAGS DCP
INDEX 01 00:00:00
FILE "16 - Air - Je Suis Triste Et Seul Ici.wav" WAVE
TRACK 16 AUDIO
TITLE "Je Suis Triste Et Seul Ici"
PERFORMER "Air"
FLAGS DCP
INDEX 01 00:00:00

CD3

Продолжительность: 01:18:17
Треклист:

01. Silence - Hello From The Children Of Planet Earth (00:24)
02. Air - Travelling Without Moving - Trip 1 (11:21)
03. Pulsation - Pulsar (01:37)
04. Jet Chamber - Tightness (02:24)
05. Silence - Into The Desert (08:16)
06. The Fires of Ork - Talk To The Stars (08:30)
07. Psychonavigation - Mind Over Matter (06:26)
08. Planetarium - Spirit Preparation (04:19)
09. Miles Apart - Soft CRD (02:59)
10. Silence - Bedouin Love (06:12)
11. Outland - African Virus - Part 3 (08:53)
12. Sequential - Sonne (03:39)
13. Possible Gardens - Breeding Machine (09:43)
14. Jochem Paap - DX Synth (03:34)

EAC


Exact Audio Copy V1.0 beta 3 from 29. August 2011

EAC extraction logfile from 20. December 2016, 22:08

Various Artists / The Ambient Cookbook II - CD 3 Of 4

Used drive : TSSTcorpCDDVDW SH-S203N Adapter: 3 ID: 0

Read mode : Secure
Utilize accurate stream : Yes
Defeat audio cache : Yes
Make use of C2 pointers : No

Read offset correction : 6
Overread into Lead-In and Lead-Out : No
Fill up missing offset samples with silence : Yes
Delete leading and trailing silent blocks : No
Null samples used in CRC calculations : Yes
Used interface : Native Win32 interface for Win NT & 2000
Gap handling : Appended to previous track

Used output format : User Defined Encoder
Selected bitrate : 128 kBit/s
Quality : High
Add ID3 tag : No
Command line compressor : C:\Program Files\Exact Audio Copy\Flac\flac.exe
Additional command line options : -8 -V -T "ARTIST=%artist%" -T "TITLE=%title%" -T "ALBUM=%albumtitle%" -T "DATE=%year%" -T "TRACKNUMBER=%tracknr%" -T "GENRE=%genre%" -T "PERFORMER=%albuminterpret%" -T "COMPOSER=%composer%" %haslyrics%--tag-from-file=LYRICS="%lyricsfile%"%haslyrics% -T "ALBUMARTIST=%albumartist%" -T "DISCNUMBER=%cdnumber%" -T "TOTALDISCS=%totalcds%" -T "TOTALTRACKS=%numtracks%" -T "COMMENT=%comment%" %source% -o %dest%

TOC of the extracted CD

Track | Start | Length | Start sector | End sector
---------------------------------------------------------
1 | 0:00.00 | 0:23.44 | 0 | 1768
2 | 0:23.44 | 11:20.46 | 1769 | 52814
3 | 11:44.15 | 1:37.05 | 52815 | 60094
4 | 13:21.20 | 2:24.01 | 60095 | 70895
5 | 15:45.21 | 8:15.41 | 70896 | 108061
6 | 24:00.62 | 8:30.21 | 108062 | 146332
7 | 32:31.08 | 6:25.41 | 146333 | 175248
8 | 38:56.49 | 4:18.58 | 175249 | 194656
9 | 43:15.32 | 2:58.54 | 194657 | 208060
10 | 46:14.11 | 6:11.64 | 208061 | 235949
11 | 52:26.00 | 8:53.36 | 235950 | 275960
12 | 61:19.36 | 3:39.09 | 275961 | 292394
13 | 64:58.45 | 9:42.68 | 292395 | 336112
14 | 74:41.38 | 3:34.36 | 336113 | 352198

Track 1

Filename D:\My Rips\Various Artists - The Ambient Cookbook II [FLAC}\CD3\01 - Silence - Hello From The Children Of Planet Earth.wav

Pre-gap length 0:00:02.00

Peak level 83.7 %
Extraction speed 0.9 X
Track quality 99.5 %
Test CRC 448C44FE
Copy CRC 448C44FE
Accurately ripped (confidence 6) [7BF2DB24] (AR v2)
Copy OK

Track 2

Filename D:\My Rips\Various Artists - The Ambient Cookbook II [FLAC}\CD3\02 - Air - Travelling Without Moving - Trip 1.wav

Peak level 88.6 %
Extraction speed 5.3 X
Track quality 99.9 %
Test CRC CD0D5F3B
Copy CRC CD0D5F3B
Accurately ripped (confidence 6) [66FA5A4F] (AR v2)
Copy OK

Track 3

Filename D:\My Rips\Various Artists - The Ambient Cookbook II [FLAC}\CD3\03 - Pulsation - Pulsar.wav

Peak level 84.8 %
Extraction speed 4.9 X
Track quality 100.0 %
Test CRC CF9DB0A6
Copy CRC CF9DB0A6
Accurately ripped (confidence 6) [81A52327] (AR v2)
Copy OK

Track 4

Filename D:\My Rips\Various Artists - The Ambient Cookbook II [FLAC}\CD3\04 - Jet Chamber - Tightness.wav

Peak level 92.8 %
Extraction speed 5.6 X
Track quality 100.0 %
Test CRC 4BDEBDE7
Copy CRC 4BDEBDE7
Accurately ripped (confidence 6) [5E243764] (AR v2)
Copy OK

Track 5

Filename D:\My Rips\Various Artists - The Ambient Cookbook II [FLAC}\CD3\05 - Silence - Into The Desert.wav

Peak level 92.2 %
Extraction speed 7.0 X
Track quality 100.0 %
Test CRC ED6F27C4
Copy CRC ED6F27C4
Accurately ripped (confidence 6) [4940125C] (AR v2)
Copy OK

Track 6

Filename D:\My Rips\Various Artists - The Ambient Cookbook II [FLAC}\CD3\06 - The Fires of Ork - Talk To The Stars.wav

Copy aborted

Track 7

Copy aborted

Track 8

Copy aborted

Track 9

Copy aborted

Track 10

Copy aborted

Track 11

Copy aborted

Track 12

Copy aborted

Track 13

Copy aborted

Track 14

Copy aborted

5 track(s) accurately ripped
9 track(s) canceled

Some tracks could not be verified as accurate

There were errors

End of status report

==== Log checksum C99BB3484F15865ED54A8D3B3F8165547A6C249FA5B64FF4D948499F7E0EEE6E ====

------------------------------------------------------------

Exact Audio Copy V1.0 beta 3 from 29. August 2011

EAC extraction logfile from 21. December 2016, 22:00

Various Artists / The Ambient Cookbook II - CD 3 Of 4

Used drive : TSSTcorpCDDVDW SH-S203N Adapter: 3 ID: 0

Read mode : Secure
Utilize accurate stream : Yes
Defeat audio cache : Yes
Make use of C2 pointers : No

Read offset correction : 6
Overread into Lead-In and Lead-Out : No
Fill up missing offset samples with silence : Yes
Delete leading and trailing silent blocks : No
Null samples used in CRC calculations : Yes
Used interface : Native Win32 interface for Win NT & 2000
Gap handling : Appended to previous track

Used output format : User Defined Encoder
Selected bitrate : 128 kBit/s
Quality : High
Add ID3 tag : No
Command line compressor : C:\Program Files\Exact Audio Copy\Flac\flac.exe
Additional command line options : -8 -V -T "ARTIST=%artist%" -T "TITLE=%title%" -T "ALBUM=%albumtitle%" -T "DATE=%year%" -T "TRACKNUMBER=%tracknr%" -T "GENRE=%genre%" -T "PERFORMER=%albuminterpret%" -T "COMPOSER=%composer%" %haslyrics%--tag-from-file=LYRICS="%lyricsfile%"%haslyrics% -T "ALBUMARTIST=%albumartist%" -T "DISCNUMBER=%cdnumber%" -T "TOTALDISCS=%totalcds%" -T "TOTALTRACKS=%numtracks%" -T "COMMENT=%comment%" %source% -o %dest%

TOC of the extracted CD

Track | Start | Length | Start sector | End sector
---------------------------------------------------------
1 | 0:00.00 | 0:23.44 | 0 | 1768
2 | 0:23.44 | 11:20.46 | 1769 | 52814
3 | 11:44.15 | 1:37.05 | 52815 | 60094
4 | 13:21.20 | 2:24.01 | 60095 | 70895
5 | 15:45.21 | 8:15.41 | 70896 | 108061
6 | 24:00.62 | 8:30.21 | 108062 | 146332
7 | 32:31.08 | 6:25.41 | 146333 | 175248
8 | 38:56.49 | 4:18.58 | 175249 | 194656
9 | 43:15.32 | 2:58.54 | 194657 | 208060
10 | 46:14.11 | 6:11.64 | 208061 | 235949
11 | 52:26.00 | 8:53.36 | 235950 | 275960
12 | 61:19.36 | 3:39.09 | 275961 | 292394
13 | 64:58.45 | 9:42.68 | 292395 | 336112
14 | 74:41.38 | 3:34.36 | 336113 | 352198

Track 1

Filename D:\My Rips\Various Artists - The Ambient Cookbook II [FLAC}\CD3\01 - Silence - Hello From The Children Of Planet Earth.wav

Pre-gap length 0:00:02.00

Peak level 83.7 %
Extraction speed 1.0 X
Track quality 99.5 %
Test CRC 448C44FE
Copy CRC 448C44FE
Accurately ripped (confidence 6) [7BF2DB24] (AR v2)
Copy OK

Track 2

Filename D:\My Rips\Various Artists - The Ambient Cookbook II [FLAC}\CD3\02 - Air - Travelling Without Moving - Trip 1.wav

Peak level 88.6 %
Extraction speed 5.3 X
Track quality 99.9 %
Test CRC CD0D5F3B
Copy CRC CD0D5F3B
Accurately ripped (confidence 6) [66FA5A4F] (AR v2)
Copy OK

Track 3

Filename D:\My Rips\Various Artists - The Ambient Cookbook II [FLAC}\CD3\03 - Pulsation - Pulsar.wav

Peak level 84.8 %
Extraction speed 4.9 X
Track quality 100.0 %
Test CRC CF9DB0A6
Copy CRC CF9DB0A6
Accurately ripped (confidence 6) [81A52327] (AR v2)
Copy OK

Track 4

Filename D:\My Rips\Various Artists - The Ambient Cookbook II [FLAC}\CD3\04 - Jet Chamber - Tightness.wav

Peak level 92.8 %
Extraction speed 5.6 X
Track quality 100.0 %
Test CRC 4BDEBDE7
Copy CRC 4BDEBDE7
Accurately ripped (confidence 6) [5E243764] (AR v2)
Copy OK

Track 5

Filename D:\My Rips\Various Artists - The Ambient Cookbook II [FLAC}\CD3\05 - Silence - Into The Desert.wav

Peak level 92.2 %
Extraction speed 7.0 X
Track quality 100.0 %
Test CRC ED6F27C4
Copy CRC ED6F27C4
Accurately ripped (confidence 6) [4940125C] (AR v2)
Copy OK

Track 6

Filename D:\My Rips\Various Artists - The Ambient Cookbook II [FLAC}\CD3\06 - The Fires of Ork - Talk To The Stars.wav

Peak level 92.4 %
Extraction speed 6.8 X
Track quality 99.9 %
Test CRC F3A7A4D6
Copy CRC F3A7A4D6
Accurately ripped (confidence 6) [EEB718AC] (AR v2)
Copy OK

Track 7

Filename D:\My Rips\Various Artists - The Ambient Cookbook II [FLAC}\CD3\07 - Psychonavigation - Mind Over Matter.wav

Peak level 93.8 %
Extraction speed 8.0 X
Track quality 100.0 %
Test CRC 090B2534
Copy CRC 090B2534
Accurately ripped (confidence 6) [68BE127A] (AR v2)
Copy OK

Track 8

Filename D:\My Rips\Various Artists - The Ambient Cookbook II [FLAC}\CD3\08 - Planetarium - Spirit Preparation.wav

Peak level 96.3 %
Extraction speed 8.0 X
Track quality 100.0 %
Test CRC FB576989
Copy CRC FB576989
Accurately ripped (confidence 6) [4A17A5D8] (AR v2)
Copy OK

Track 9

Filename D:\My Rips\Various Artists - The Ambient Cookbook II [FLAC}\CD3\09 - Miles Apart - Soft CRD.wav

Peak level 84.7 %
Extraction speed 7.7 X
Track quality 100.0 %
Test CRC A4EDA0BA
Copy CRC A4EDA0BA
Accurately ripped (confidence 6) [402F61C3] (AR v2)
Copy OK

Track 10

Filename D:\My Rips\Various Artists - The Ambient Cookbook II [FLAC}\CD3\10 - Silence - Bedouin Love.wav

Peak level 91.4 %
Extraction speed 7.5 X
Track quality 99.9 %
Test CRC 8F13BA8F
Copy CRC 8F13BA8F
Accurately ripped (confidence 6) [DBFF1FC7] (AR v2)
Copy OK

Track 11

Filename D:\My Rips\Various Artists - The Ambient Cookbook II [FLAC}\CD3\11 - Outland - African Virus - Part 3.wav

Peak level 100.0 %
Extraction speed 8.4 X
Track quality 99.9 %
Test CRC 67D8E5EE
Copy CRC 67D8E5EE
Accurately ripped (confidence 6) [F4B25468] (AR v2)
Copy OK

Track 12

Filename D:\My Rips\Various Artists - The Ambient Cookbook II [FLAC}\CD3\12 - Sequential - Sonne.wav

Peak level 91.4 %
Extraction speed 5.7 X
Track quality 99.9 %
Test CRC 1CC916B7
Copy CRC 624B49EE
Cannot be verified as accurate (confidence 6) [AAD8A46D], AccurateRip returned [47C3933B] (AR v2)
Copy OK

Track 13

Filename D:\My Rips\Various Artists - The Ambient Cookbook II [FLAC}\CD3\13 - Possible Gardens - Breeding Machine.wav

Suspicious position 0:06:11

Peak level 94.1 %
Extraction speed 5.1 X
Track quality 99.8 %
Test CRC 46E695A0
Copy CRC ABDA02F4
Cannot be verified as accurate (confidence 1) [4706A88A], AccurateRip returned [3AD9E79C] (AR v2)
Copy finished

Track 14

Filename D:\My Rips\Various Artists - The Ambient Cookbook II [FLAC}\CD3\14 - Jochem Paap - DX Synth.wav

Peak level 78.0 %
Extraction speed 7.6 X
Track quality 99.9 %
Test CRC 07A28D75
Copy CRC 07A28D75
Cannot be verified as accurate (confidence 7) [DAD111FB], AccurateRip returned [4136A9B4] (AR v2)
Copy OK

11 track(s) accurately ripped
3 track(s) could not be verified as accurate

Some tracks could not be verified as accurate

There were errors

End of status report

---- CUETools DB Plugin V2.1.3

[CTDB TOCID: dBT7ppqSJ3i.go4Am0ym1_U4e5M-] found, Submit result: insufficient quality
[b06b3766] (1/7) Differs in 904 samples @63:24:40-63:24:41,64:19:45-64:19:46,66:40:06-66:40:07,66:58:37-66:58:38,68:15:49-68:15:50,71:10:46-71:10:48,71:25:72,71:26:51,77:16:40-77:16:41
[eb724600] (1/7) Differs in 911 samples @63:24:40-63:24:41,64:19:45-64:19:46,66:40:06-66:40:07,66:58:37-66:58:38,68:15:49-68:15:50,71:10:46-71:10:48,71:26:51,77:16:40-77:16:41
[56b07c4c] (1/7) Differs in 441 samples @63:24:40-63:24:41,64:19:45-64:19:46,66:40:06-66:40:07,68:15:49-68:15:50,71:10:46-71:10:47,71:26:51,77:16:40-77:16:41
[e68931a2] (1/7) No match
[4fc1b466] (2/7) Differs in 917 samples @63:24:40-63:24:41,64:19:45-64:19:46,66:40:06-66:40:07,66:58:37-66:58:38,68:15:49-68:15:50,71:10:46-71:10:48,71:26:51,77:16:40-77:16:41
[32a9d578] (1/7) No match
You can use CUETools to repair this rip.

==== Log checksum 7FFCEDF51D99616951E4872571DF4683698BA44848EBB37AFBA0C5C7EE20954D ====

CUE


REM GENRE Electronic
REM DATE 2002
REM DISCID D012570E
REM COMMENT "ExactAudioCopy v1.0b3"
PERFORMER "Various Artists"
TITLE "The Ambient Cookbook II - CD 3 Of 4"
FILE "01 - Silence - Hello From The Children Of Planet Earth.wav" WAVE
TRACK 01 AUDIO
TITLE "Hello From The Children Of Planet Earth"
PERFORMER "Silence"
FLAGS DCP
INDEX 01 00:00:00
FILE "02 - Air - Travelling Without Moving - Trip 1.wav" WAVE
TRACK 02 AUDIO
TITLE "Travelling Without Moving - Trip 1"
PERFORMER "Air"
FLAGS DCP
INDEX 01 00:00:00
FILE "03 - Pulsation - Pulsar.wav" WAVE
TRACK 03 AUDIO
TITLE "Pulsar"
PERFORMER "Pulsation"
FLAGS DCP
INDEX 01 00:00:00
FILE "04 - Jet Chamber - Tightness.wav" WAVE
TRACK 04 AUDIO
TITLE "Tightness"
PERFORMER "Jet Chamber"
FLAGS DCP
INDEX 01 00:00:00
FILE "05 - Silence - Into The Desert.wav" WAVE
TRACK 05 AUDIO
TITLE "Into The Desert"
PERFORMER "Silence"
FLAGS DCP
INDEX 01 00:00:00
FILE "06 - The Fires of Ork - Talk To The Stars.wav" WAVE
TRACK 06 AUDIO
TITLE "Talk To The Stars"
PERFORMER "The Fires of Ork"
FLAGS DCP
INDEX 01 00:00:00
FILE "07 - Psychonavigation - Mind Over Matter.wav" WAVE
TRACK 07 AUDIO
TITLE "Mind Over Matter"
PERFORMER "Psychonavigation"
FLAGS DCP
INDEX 01 00:00:00
FILE "08 - Planetarium - Spirit Preparation.wav" WAVE
TRACK 08 AUDIO
TITLE "Spirit Preparation"
PERFORMER "Planetarium"
FLAGS DCP
INDEX 01 00:00:00
FILE "09 - Miles Apart - Soft CRD.wav" WAVE
TRACK 09 AUDIO
TITLE "Soft CRD"
PERFORMER "Miles Apart"
FLAGS DCP
INDEX 01 00:00:00
FILE "10 - Silence - Bedouin Love.wav" WAVE
TRACK 10 AUDIO
TITLE "Bedouin Love"
PERFORMER "Silence"
FLAGS DCP
INDEX 01 00:00:00
FILE "11 - Outland - African Virus - Part 3.wav" WAVE
TRACK 11 AUDIO
TITLE "African Virus - Part 3"
PERFORMER "Outland"
FLAGS DCP
INDEX 01 00:00:00
FILE "12 - Sequential - Sonne.wav" WAVE
TRACK 12 AUDIO
TITLE "Sonne"
PERFORMER "Sequential"
FLAGS DCP
INDEX 01 00:00:00
FILE "13 - Possible Gardens - Breeding Machine.wav" WAVE
TRACK 13 AUDIO
TITLE "Breeding Machine"
PERFORMER "Possible Gardens"
FLAGS DCP
INDEX 01 00:00:00
FILE "14 - Jochem Paap - DX Synth.wav" WAVE
TRACK 14 AUDIO
TITLE "DX Synth"
PERFORMER "Jochem Paap"
FLAGS DCP
INDEX 01 00:00:00

CD4

Продолжительность: 01:18:00
Треклист:

01. Psychonavigation - Life Eternal (08:28)
02. Hearts Of Space - Drawn (03:15)
03. Sultan - Gel Gor Beni Ask N'eyledi (03:08)
04. Psychonavigation - DSPill (02:09)
05. Psychonavigation - Trauntoniolo (03:51)
06. Pete Namlook & The Higher Intelligence Agency - Secret Location (08:46)
07. 2350 Broadway - Rich Dreams (02:51)
08. EMC - Vocal Atoms (10:36)
09. Virtual Vices - Last Dance On Luna (07:22)
10. Silence - While Angels Sleep (07:51)
11. Silence - Master Of The Sky (04:19)
12. Seasons Greetings - Winter (14:15)
13. Sultan - Yenilik #8 (01:09)

EAC


Exact Audio Copy V1.0 beta 3 from 29. August 2011

EAC extraction logfile from 21. December 2016, 22:29

Various Artists / The Ambient Cookbook II - CD 4 Of 4

Used drive : TSSTcorpCDDVDW SH-S203N Adapter: 3 ID: 0

Read mode : Secure
Utilize accurate stream : Yes
Defeat audio cache : Yes
Make use of C2 pointers : No

Read offset correction : 6
Overread into Lead-In and Lead-Out : No
Fill up missing offset samples with silence : Yes
Delete leading and trailing silent blocks : No
Null samples used in CRC calculations : Yes
Used interface : Native Win32 interface for Win NT & 2000
Gap handling : Appended to previous track

Used output format : User Defined Encoder
Selected bitrate : 128 kBit/s
Quality : High
Add ID3 tag : No
Command line compressor : C:\Program Files\Exact Audio Copy\Flac\flac.exe
Additional command line options : -8 -V -T "ARTIST=%artist%" -T "TITLE=%title%" -T "ALBUM=%albumtitle%" -T "DATE=%year%" -T "TRACKNUMBER=%tracknr%" -T "GENRE=%genre%" -T "PERFORMER=%albuminterpret%" -T "COMPOSER=%composer%" %haslyrics%--tag-from-file=LYRICS="%lyricsfile%"%haslyrics% -T "ALBUMARTIST=%albumartist%" -T "DISCNUMBER=%cdnumber%" -T "TOTALDISCS=%totalcds%" -T "TOTALTRACKS=%numtracks%" -T "COMMENT=%comment%" %source% -o %dest%

TOC of the extracted CD

Track | Start | Length | Start sector | End sector
---------------------------------------------------------
1 | 0:00.00 | 8:27.41 | 0 | 38065
2 | 8:27.41 | 3:14.73 | 38066 | 52688
3 | 11:42.39 | 3:08.14 | 52689 | 66802
4 | 14:50.53 | 2:08.67 | 66803 | 76469
5 | 16:59.45 | 3:51.01 | 76470 | 93795
6 | 20:50.46 | 8:46.01 | 93796 | 133246
7 | 29:36.47 | 2:50.39 | 133247 | 146035
8 | 32:27.11 | 10:35.67 | 146036 | 193727
9 | 43:03.03 | 7:21.62 | 193728 | 226864
10 | 50:24.65 | 7:51.26 | 226865 | 262215
11 | 58:16.16 | 4:18.69 | 262216 | 281634
12 | 62:35.10 | 14:14.64 | 281635 | 345748
13 | 76:49.74 | 1:09.09 | 345749 | 350932

Track 1

Filename D:\My Rips\Various Artists - The Ambient Cookbook II [FLAC}\CD4\01 - Psychonavigation - Life Eternal.wav

Pre-gap length 0:00:02.00

Peak level 96.9 %
Extraction speed 5.5 X
Track quality 100.0 %
Test CRC 85140661
Copy CRC 85140661
Accurately ripped (confidence 6) [C33AF36C] (AR v2)
Copy OK

Track 2

Filename D:\My Rips\Various Artists - The Ambient Cookbook II [FLAC}\CD4\02 - Hearts Of Space - Drawn.wav

Peak level 98.3 %
Extraction speed 5.5 X
Track quality 100.0 %
Test CRC ADDE608D
Copy CRC ADDE608D
Accurately ripped (confidence 6) [8A1ACC18] (AR v2)
Copy OK

Track 3

Filename D:\My Rips\Various Artists - The Ambient Cookbook II [FLAC}\CD4\03 - Sultan - Gel Gör Beni Ask N'eyledi.wav

Peak level 100.0 %
Extraction speed 5.7 X
Track quality 100.0 %
Test CRC A28F76F2
Copy CRC A28F76F2
Accurately ripped (confidence 6) [4B65791C] (AR v2)
Copy OK

Track 4

Filename D:\My Rips\Various Artists - The Ambient Cookbook II [FLAC}\CD4\04 - Psychonavigation - DSPill.wav

Peak level 98.6 %
Extraction speed 5.5 X
Track quality 100.0 %
Test CRC 27BB6ACA
Copy CRC 27BB6ACA
Accurately ripped (confidence 6) [BE4C3488] (AR v2)
Copy OK

Track 5

Filename D:\My Rips\Various Artists - The Ambient Cookbook II [FLAC}\CD4\05 - Psychonavigation - Trauntoniolo.wav

Peak level 65.1 %
Extraction speed 6.4 X
Track quality 100.0 %
Test CRC 4B0148E4
Copy CRC 4B0148E4
Accurately ripped (confidence 6) [68E921F6] (AR v2)
Copy OK

Track 6

Filename D:\My Rips\Various Artists - The Ambient Cookbook II [FLAC}\CD4\06 - Pete Namlook & The Higher Intelligence Agency - Secret Location.wav

Peak level 92.0 %
Extraction speed 7.4 X
Track quality 100.0 %
Test CRC 95353C23
Copy CRC 95353C23
Accurately ripped (confidence 6) [21FE3B66] (AR v2)
Copy OK

Track 7

Filename D:\My Rips\Various Artists - The Ambient Cookbook II [FLAC}\CD4\07 - 2350 Broadway - Rich Dreams.wav

Peak level 82.2 %
Extraction speed 6.9 X
Track quality 100.0 %
Test CRC B418D324
Copy CRC B418D324
Accurately ripped (confidence 6) [A25E9AD1] (AR v2)
Copy OK

Track 8

Filename D:\My Rips\Various Artists - The Ambient Cookbook II [FLAC}\CD4\08 - EMC - Vocal Atoms.wav

Peak level 82.9 %
Extraction speed 8.4 X
Track quality 100.0 %
Test CRC 84D755CE
Copy CRC 84D755CE
Accurately ripped (confidence 6) [7F538B46] (AR v2)
Copy OK

Track 9

Filename D:\My Rips\Various Artists - The Ambient Cookbook II [FLAC}\CD4\09 - Virtual Vices - Last Dance On Luna.wav

Peak level 79.4 %
Extraction speed 8.8 X
Track quality 100.0 %
Test CRC AA5BEFB9
Copy CRC AA5BEFB9
Accurately ripped (confidence 6) [AEF07F32] (AR v2)
Copy OK

Track 10

Filename D:\My Rips\Various Artists - The Ambient Cookbook II [FLAC}\CD4\10 - Silence - While Angels Sleep.wav

Peak level 71.6 %
Extraction speed 9.3 X
Track quality 100.0 %
Test CRC 9CC5C986
Copy CRC 9CC5C986
Accurately ripped (confidence 6) [C5F42CE1] (AR v2)
Copy OK

Track 11

Filename D:\My Rips\Various Artists - The Ambient Cookbook II [FLAC}\CD4\11 - Silence - Master Of The Sky.wav

Peak level 87.7 %
Extraction speed 9.1 X
Track quality 100.0 %
Test CRC EF40861D
Copy CRC EF40861D
Accurately ripped (confidence 6) [02760C9A] (AR v2)
Copy OK

Track 12

Filename D:\My Rips\Various Artists - The Ambient Cookbook II [FLAC}\CD4\12 - Seasons Greetings - Winter.wav

Peak level 77.0 %
Extraction speed 10.5 X
Track quality 100.0 %
Test CRC 27C246DB
Copy CRC 27C246DB
Accurately ripped (confidence 6) [9010AB7C] (AR v2)
Copy OK

Track 13

Filename D:\My Rips\Various Artists - The Ambient Cookbook II [FLAC}\CD4\13 - Sultan - Yenilik #8.wav

Peak level 29.0 %
Extraction speed 7.2 X
Track quality 100.0 %
Test CRC D5B463BC
Copy CRC D5B463BC
Accurately ripped (confidence 6) [26985D3B] (AR v2)
Copy OK

All tracks accurately ripped

No errors occurred

End of status report

---- CUETools DB Plugin V2.1.3

[CTDB TOCID: WdHRxzStN58iF1vnDpBNMjmaHSg-] found, Submit result: WdHRxzStN58iF1vnDpBNMjmaHSg- has been confirmed
[3608ad3f] (09/10) Accurately ripped
[be925f94] (01/10) No match

==== Log checksum 240930BC45827610F0775E1387D2A3ED047C47D1373F96D8F528A45E8394F215 ====

CUE


REM GENRE Electronic
REM DATE 2002
REM DISCID C312470D
REM COMMENT "ExactAudioCopy v1.0b3"
PERFORMER "Various Artists"
TITLE "The Ambient Cookbook II - CD 4 Of 4"
FILE "01 - Psychonavigation - Life Eternal.wav" WAVE
TRACK 01 AUDIO
TITLE "Life Eternal"
PERFORMER "Psychonavigation"
FLAGS DCP
INDEX 01 00:00:00
FILE "02 - Hearts Of Space - Drawn.wav" WAVE
TRACK 02 AUDIO
TITLE "Drawn"
PERFORMER "Hearts Of Space"
FLAGS DCP
INDEX 01 00:00:00
FILE "03 - Sultan - Gel Gцr Beni Ask N'eyledi.wav" WAVE
TRACK 03 AUDIO
TITLE "Gel Gцr Beni Ask N'eyledi"
PERFORMER "Sultan"
FLAGS DCP
INDEX 01 00:00:00
FILE "04 - Psychonavigation - DSPill.wav" WAVE
TRACK 04 AUDIO
TITLE "DSPill"
PERFORMER "Psychonavigation"
FLAGS DCP
INDEX 01 00:00:00
FILE "05 - Psychonavigation - Trauntoniolo.wav" WAVE
TRACK 05 AUDIO
TITLE "Trauntoniolo"
PERFORMER "Psychonavigation"
FLAGS DCP
INDEX 01 00:00:00
FILE "06 - Pete Namlook & The Higher Intelligence Agency - Secret Location.wav" WAVE
TRACK 06 AUDIO
TITLE "Secret Location"
PERFORMER "Pete Namlook & The Higher Intelligence Agency"
FLAGS DCP
INDEX 01 00:00:00
FILE "07 - 2350 Broadway - Rich Dreams.wav" WAVE
TRACK 07 AUDIO
TITLE "Rich Dreams"
PERFORMER "2350 Broadway"
FLAGS DCP
INDEX 01 00:00:00
FILE "08 - EMC - Vocal Atoms.wav" WAVE
TRACK 08 AUDIO
TITLE "Vocal Atoms"
PERFORMER "EMC"
FLAGS DCP
INDEX 01 00:00:00
FILE "09 - Virtual Vices - Last Dance On Luna.wav" WAVE
TRACK 09 AUDIO
TITLE "Last Dance On Luna"
PERFORMER "Virtual Vices"
FLAGS DCP
INDEX 01 00:00:00
FILE "10 - Silence - While Angels Sleep.wav" WAVE
TRACK 10 AUDIO
TITLE "While Angels Sleep"
PERFORMER "Silence"
FLAGS DCP
INDEX 01 00:00:00
FILE "11 - Silence - Master Of The Sky.wav" WAVE
TRACK 11 AUDIO
TITLE "Master Of The Sky"
PERFORMER "Silence"
FLAGS DCP
INDEX 01 00:00:00
FILE "12 - Seasons Greetings - Winter.wav" WAVE
TRACK 12 AUDIO
TITLE "Winter"
PERFORMER "Seasons Greetings"
FLAGS DCP
INDEX 01 00:00:00
FILE "13 - Sultan - Yenilik #8.wav" WAVE
TRACK 13 AUDIO
TITLE "Yenilik #8"
PERFORMER "Sultan"
FLAGS DCP
INDEX 01 00:00:00

Discogs

Детали торрента:
Название:VA - The Ambient Cookbook II (2002) Fax +49-69/450464 [FLAC|Lossless|tracks+.cue] <Abstract, Downtempo, Ambient, Experimental>
Дата добавления:27 Сен 2018 06:42:48
Размер:1,54 GB
Раздают:2
Качают:0
Форум:Easy listening (Lossless)

All rights reserved © 2015-2019