TORRENTS45.XYZ

Скачать VA - The Ambient Cookbook (1995) Fax +49-69/450464 [FLAC|Lossless|tracks+.cue] <Ambient, Tribal, IDM, Downtempo, Experimental>


The Ambient Cookbook

Жанр: Ambient, Tribal, IDM, Downtempo, Experimental • Страна: Germany • Год: 1995 • Тип издания: CD
Аудиокодек: FLAC • Тип рипа: tracks+.cue • Продолжительность: 04:45:55 • Издание: Fax +49-69/450464 - PKPWPS 3
Треклист:

CD1

Продолжительность: 01:13:35
Треклист:

01. Sad World - Treasury (10:10)
02. Ambiant Otaku - Holy Dance (15:05)
03. Music To Films - Music For Films (Movement 5) (12:59)
04. From Within - Sad Alliance (12:16)
05. Silence - Heaven (Aw-Cut) (06:41)
06. I.F. - Kisy Loa (13:56)
07. 4Voice - 4Vl Outro (02:28)

EAC


X Lossless Decoder version 20131102 (145.0)

XLD extraction logfile from 2014-01-22 09:54:13 -0500

Various Artists / The Ambient Cookbook (disc 1 of 4)

Used drive : PIONEER DVD-RW DVR-112D (revision BC14)
Media type : Pressed CD

Ripper mode : XLD Secure Ripper
Disable audio cache : OK for the drive with a cache less than 1375KiB
Make use of C2 pointers : NO
Read offset correction : 48
Max retry count : 100
Gap status : Analyzed, Appended

TOC of the extracted CD
Track | Start | Length | Start sector | End sector
---------------------------------------------------------
1 | 00:00:30 | 10:09:39 | 30 | 45743
2 | 10:09:69 | 15:05:09 | 45744 | 113627
3 | 25:15:03 | 12:58:73 | 113628 | 172050
4 | 38:14:01 | 12:16:10 | 172051 | 227260
5 | 50:30:11 | 06:40:67 | 227261 | 257327
6 | 57:11:03 | 13:55:70 | 257328 | 320022
7 | 71:06:73 | 02:28:19 | 320023 | 331141

AccurateRip Summary (DiscID: 00166347-00849a00-54113f07)
Track 01 : OK (v1+v2, confidence 11/11)
Track 02 : OK (v1+v2, confidence 11/11)
Track 03 : OK (v1+v2, confidence 11/11)
Track 04 : OK (v1+v2, confidence 11/11)
Track 05 : OK (v1+v2, confidence 11/11)
Track 06 : OK (v1+v2, confidence 11/11)
Track 07 : OK (v1+v2, confidence 11/11)
->All tracks accurately ripped.

All Tracks
Album gain : -3.23 dB
Peak : 0.984375
Statistics
Read error : 0
Jitter error (maybe fixed) : 0
Retry sector count : 3
Damaged sector count : 0

Track 01
Filename : /Volumes/MUSIC/torrents/[flac]/The Ambient Cookbook (1995) [FLAC]/
Compilations - The Ambient Cookbook (disc 1 of 4) (1995) [FLAC]/01 - Sad World - Treasury.flac
Pre-gap length : 00:02:30

Track gain : -2.52 dB
Peak : 0.984375
CRC32 hash (test run) : 2649AD2F
CRC32 hash : 2649AD2F
CRC32 hash (skip zero) : 3287F11D
AccurateRip v1 signature : D603662F
AccurateRip v2 signature : 0BD6FC97
->Accurately ripped (v1+v2, confidence 9+2/11)
Statistics
Read error : 0
Jitter error (maybe fixed) : 0
Retry sector count : 0
Damaged sector count : 0

Track 02
Filename : /Volumes/MUSIC/torrents/[flac]/The Ambient Cookbook (1995) [FLAC]/
Compilations - The Ambient Cookbook (disc 1 of 4) (1995) [FLAC]/02 - Ambient Otaku - Holy Dance.flac

Track gain : -3.30 dB
Peak : 0.984375
CRC32 hash (test run) : 0B47B2A6
CRC32 hash : 0B47B2A6
CRC32 hash (skip zero) : 7B5EE9F6
AccurateRip v1 signature : 99F7F00D
AccurateRip v2 signature : 5A479491
->Accurately ripped (v1+v2, confidence 9+2/11)
Statistics
Read error : 0
Jitter error (maybe fixed) : 0
Retry sector count : 0
Damaged sector count : 0

Track 03
Filename : /Volumes/MUSIC/torrents/[flac]/The Ambient Cookbook (1995) [FLAC]/
Compilations - The Ambient Cookbook (disc 1 of 4) (1995) [FLAC]/03 - Music For Films - Movement 5.flac

Track gain : -3.03 dB
Peak : 0.864929
CRC32 hash (test run) : A678B7E7
CRC32 hash : A678B7E7
CRC32 hash (skip zero) : 503D85EF
AccurateRip v1 signature : 537C433B
AccurateRip v2 signature : 0E28B902
->Accurately ripped (v1+v2, confidence 9+2/11)
Statistics
Read error : 0
Jitter error (maybe fixed) : 0
Retry sector count : 0
Damaged sector count : 0

Track 04
Filename : /Volumes/MUSIC/torrents/[flac]/The Ambient Cookbook (1995) [FLAC]/
Compilations - The Ambient Cookbook (disc 1 of 4) (1995) [FLAC]/04 - From Within - Sad Alliance.flac

Track gain : -3.06 dB
Peak : 0.875641
CRC32 hash (test run) : 91B3F2D1
CRC32 hash : 91B3F2D1
CRC32 hash (skip zero) : 69FBEC3B
AccurateRip v1 signature : E776FCBF
AccurateRip v2 signature : A8745BDE
->Accurately ripped (v1+v2, confidence 9+2/11)
Statistics
Read error : 0
Jitter error (maybe fixed) : 0
Retry sector count : 0
Damaged sector count : 0

Track 05
Filename : /Volumes/MUSIC/torrents/[flac]/The Ambient Cookbook (1995) [FLAC]/
Compilations - The Ambient Cookbook (disc 1 of 4) (1995) [FLAC]/05 - Silence - Heaven (aw-Cut).flac

Track gain : -4.22 dB
Peak : 0.960083
CRC32 hash (test run) : 6A871272
CRC32 hash : 6A871272
CRC32 hash (skip zero) : D8427D82
AccurateRip v1 signature : 4AD7C4BF
AccurateRip v2 signature : ECB2E90E
->Accurately ripped (v1+v2, confidence 9+2/11)
Statistics
Read error : 0
Jitter error (maybe fixed) : 0
Retry sector count : 0
Damaged sector count : 0

Track 06
Filename : /Volumes/MUSIC/torrents/[flac]/The Ambient Cookbook (1995) [FLAC]/
Compilations - The Ambient Cookbook (disc 1 of 4) (1995) [FLAC]/06 - I.F. - Kisy Loa.flac

Track gain : -1.95 dB
Peak : 0.984375
CRC32 hash (test run) : F7E1F820
CRC32 hash : F7E1F820
CRC32 hash (skip zero) : 27D4DC6E
AccurateRip v1 signature : C9EDEAEB
AccurateRip v2 signature : 7CABDF35
->Accurately ripped (v1+v2, confidence 9+2/11)
Statistics
Read error : 0
Jitter error (maybe fixed) : 0
Retry sector count : 0
Damaged sector count : 0

Track 07
Filename : /Volumes/MUSIC/torrents/[flac]/The Ambient Cookbook (1995) [FLAC]/
Compilations - The Ambient Cookbook (disc 1 of 4) (1995) [FLAC]/07 - 4Voice - 4VI Outro.flac

Track gain : -3.25 dB
Peak : 0.984344
CRC32 hash (test run) : 0737524A
CRC32 hash : 0737524A
CRC32 hash (skip zero) : 6F8FF47A
AccurateRip v1 signature : 9ECC02B4
AccurateRip v2 signature : BDC0541E
->Accurately ripped (v1+v2, confidence 9+2/11)
Statistics
Read error : 0
Jitter error (maybe fixed) : 0
Retry sector count : 3
Damaged sector count : 0

No errors occurred

End of status report

-----BEGIN XLD SIGNATURE-----
Yb4iZ1mxwVTC6l29bwFxiaO0AcKwnN9zbfSXgILbYHhz4qlDH9AEgudWJUCVWbKbmm3FlgFcj0hhBW1nNcFKgt25k79HfRvWCr5wO9i
-----END XLD SIGNATURE-----

CUE


REM GENRE "Ambient"
REM DATE "1995"
REM DISCNUMBER 1
REM TOTALDISCS 4
REM DISCID 54113F07
PERFORMER Various
TITLE "The Ambient Cookbook"
FILE "01. Sad World - Treasury.flac" WAVE
TRACK 1 AUDIO
TITLE Treasury
PERFORMER "Sad World"
INDEX 01 00:00:00
FILE "02. Ambiant Otaku - Holy Dance.flac" WAVE
TRACK 2 AUDIO
TITLE "Holy Dance"
PERFORMER "Ambiant Otaku"
INDEX 01 00:00:00
FILE "03. Music To Films - Music For Films (Movement 5).flac" WAVE
TRACK 3 AUDIO
TITLE "Music For Films (Movement 5)"
PERFORMER "Music To Films"
INDEX 01 00:00:00
FILE "04. From Within - Sad Alliance.flac" WAVE
TRACK 4 AUDIO
TITLE "Sad Alliance"
PERFORMER "From Within"
INDEX 01 00:00:00
FILE "05. Silence - Heaven (Aw-Cut).flac" WAVE
TRACK 5 AUDIO
TITLE "Heaven (Aw-Cut)"
PERFORMER Silence
INDEX 01 00:00:00
FILE "06. I.F. - Kisy Loa.flac" WAVE
TRACK 6 AUDIO
TITLE "Kisy Loa"
PERFORMER I.F.
INDEX 01 00:00:00
FILE "07. 4Voice - 4Vl Outro.flac" WAVE
TRACK 7 AUDIO
TITLE "4Vl Outro"
PERFORMER 4Voice
INDEX 01 00:00:00

CD2

Продолжительность: 01:09:45
Треклист:

01. Zenith - Electro Dreams (11:16)
02. Air - Travelling Without Moving (Trip #9) (08:24)
03. Transonic - Time Span Zero (06:57)
04. The Putney - Angel Circle (12:32)
05. Shades Of Orion - Biotrip (24:06)
06. Datacide - Data Haiku (06:30)

EAC


X Lossless Decoder version 20131102 (145.0)

XLD extraction logfile from 2014-01-22 10:17:20 -0500

Various Artists / The Ambient Cookbook [disk 2]

Used drive : PIONEER DVD-RW DVR-112D (revision BC14)
Media type : Pressed CD

Ripper mode : XLD Secure Ripper
Disable audio cache : OK for the drive with a cache less than 1375KiB
Make use of C2 pointers : NO
Read offset correction : 48
Max retry count : 100
Gap status : Analyzed, Appended

TOC of the extracted CD
Track | Start | Length | Start sector | End sector
---------------------------------------------------------
1 | 00:00:30 | 11:15:48 | 30 | 50702
2 | 11:16:03 | 08:24:11 | 50703 | 88513
3 | 19:40:14 | 06:57:02 | 88514 | 119790
4 | 26:37:16 | 12:31:64 | 119791 | 176179
5 | 39:09:05 | 24:06:04 | 176180 | 284633
6 | 63:15:09 | 06:30:07 | 284634 | 313890

AccurateRip Summary (DiscID: 000fc60f-0055f053-60105906)
Track 01 : OK (v1+v2, confidence 11/11)
Track 02 : OK (v1+v2, confidence 11/11)
Track 03 : OK (v1+v2, confidence 11/11)
Track 04 : OK (v1+v2, confidence 11/11)
Track 05 : OK (v1, confidence 9/9)
Track 06 : OK (v1, confidence 8/8)
->All tracks accurately ripped.

All Tracks
Album gain : -0.48 dB
Peak : 0.984344
Statistics
Read error : 0
Jitter error (maybe fixed) : 0
Retry sector count : 0
Damaged sector count : 0

Track 01
Filename : /Volumes/MUSIC/torrents/[flac]/The Ambient Cookbook (1995) [FLAC]/
Compilations - The Ambient Cookbook [disk 2] (1995) [FLAC]/01 - Various Artists - Zenith - Electro Dreams.flac
Pre-gap length : 00:02:30

Track gain : 3.39 dB
Peak : 0.984344
CRC32 hash (test run) : BC6681A6
CRC32 hash : BC6681A6
CRC32 hash (skip zero) : CFC1875E
AccurateRip v1 signature : ACAE3B02
AccurateRip v2 signature : D41D74A5
->Accurately ripped (v1+v2, confidence 9+2/11)
Statistics
Read error : 0
Jitter error (maybe fixed) : 0
Retry sector count : 0
Damaged sector count : 0

Track 02
Filename : /Volumes/MUSIC/torrents/[flac]/The Ambient Cookbook (1995) [FLAC]/
Compilations - The Ambient Cookbook [disk 2] (1995) [FLAC]/02 - Various Artists - Air - Trip #9.flac

Track gain : -1.88 dB
Peak : 0.984344
CRC32 hash (test run) : DB0C573F
CRC32 hash : DB0C573F
CRC32 hash (skip zero) : 5700D7CC
AccurateRip v1 signature : 0A330E27
AccurateRip v2 signature : DB125CAC
->Accurately ripped (v1+v2, confidence 9+2/11)
Statistics
Read error : 0
Jitter error (maybe fixed) : 0
Retry sector count : 0
Damaged sector count : 0

Track 03
Filename : /Volumes/MUSIC/torrents/[flac]/The Ambient Cookbook (1995) [FLAC]/
Compilations - The Ambient Cookbook [disk 2] (1995) [FLAC]/03 - Various Artists - Transonic - Time Span Zero.flac

Track gain : -0.87 dB
Peak : 0.984314
CRC32 hash (test run) : 0B29B75B
CRC32 hash : 0B29B75B
CRC32 hash (skip zero) : A1CDC107
AccurateRip v1 signature : 907CC6B2
AccurateRip v2 signature : 09BC32D7
->Accurately ripped (v1+v2, confidence 9+2/11)
Statistics
Read error : 0
Jitter error (maybe fixed) : 0
Retry sector count : 0
Damaged sector count : 0

Track 04
Filename : /Volumes/MUSIC/torrents/[flac]/The Ambient Cookbook (1995) [FLAC]/
Compilations - The Ambient Cookbook [disk 2] (1995) [FLAC]/04 - Various Artists - The Putney - Angel Circle.flac

Track gain : -1.76 dB
Peak : 0.984344
CRC32 hash (test run) : E2262C74
CRC32 hash : E2262C74
CRC32 hash (skip zero) : 8CA1B78F
AccurateRip v1 signature : 841E022D
AccurateRip v2 signature : 025B54F4
->Accurately ripped (v1+v2, confidence 9+2/11)
Statistics
Read error : 0
Jitter error (maybe fixed) : 0
Retry sector count : 0
Damaged sector count : 0

Track 05
Filename : /Volumes/MUSIC/torrents/[flac]/The Ambient Cookbook (1995) [FLAC]/
Compilations - The Ambient Cookbook [disk 2] (1995) [FLAC]/05 - Various Artists - Shades Of Orion - Biotrip.flac

Track gain : 1.94 dB
Peak : 0.984344
CRC32 hash (test run) : 0F6D3681
CRC32 hash : 0F6D3681
CRC32 hash (skip zero) : D6A266E8
AccurateRip v1 signature : F68009AA
AccurateRip v2 signature : 333608F0
->Accurately ripped (v1, confidence 9/9)
Statistics
Read error : 0
Jitter error (maybe fixed) : 0
Retry sector count : 0
Damaged sector count : 0

Track 06
Filename : /Volumes/MUSIC/torrents/[flac]/The Ambient Cookbook (1995) [FLAC]/
Compilations - The Ambient Cookbook [disk 2] (1995) [FLAC]/06 - Various Artists - Datacide - Data Haiku.flac

Track gain : 1.00 dB
Peak : 0.590759
CRC32 hash (test run) : BA68DA21
CRC32 hash : BA68DA21
CRC32 hash (skip zero) : 84301094
AccurateRip v1 signature : 35DD8EA7
AccurateRip v2 signature : 304A25A8
->Accurately ripped (v1, confidence 8/8)
Statistics
Read error : 0
Jitter error (maybe fixed) : 0
Retry sector count : 0
Damaged sector count : 0

No errors occurred

End of status report

-----BEGIN XLD SIGNATURE-----
3kPDXUxhIbI0zkggUZwz8x5tQfUvctz5CljpxGFfg3Bud9AbZ5aoScYSEnz4pX4dBD9UOFNJ3t5zr0nsVNnXUrZ3z0JEyQPJXz1_fPW
-----END XLD SIGNATURE-----

CUE


REM GENRE "Ambient"
REM DATE "1995"
REM DISCNUMBER 2
REM TOTALDISCS 4
REM DISCID 60105906
PERFORMER Various
TITLE "The Ambient Cookbook"
FILE "01. Zenith - Electro Dreams.flac" WAVE
TRACK 1 AUDIO
TITLE "Electro Dreams"
PERFORMER Zenith
INDEX 01 00:00:00
FILE "02. Air - Travelling Without Moving (Trip #9).flac" WAVE
TRACK 2 AUDIO
TITLE "Travelling Without Moving (Trip #9)"
PERFORMER Air
INDEX 01 00:00:00
FILE "03. Transonic - Time Span Zero.flac" WAVE
TRACK 3 AUDIO
TITLE "Time Span Zero"
PERFORMER Transonic
INDEX 01 00:00:00
FILE "04. The Putney - Angel Circle.flac" WAVE
TRACK 4 AUDIO
TITLE "Angel Circle"
PERFORMER "The Putney"
INDEX 01 00:00:00
FILE "05. Shades Of Orion - Biotrip.flac" WAVE
TRACK 5 AUDIO
TITLE Biotrip
PERFORMER "Shades Of Orion"
INDEX 01 00:00:00
FILE "06. Datacide - Data Haiku.flac" WAVE
TRACK 6 AUDIO
TITLE "Data Haiku"
PERFORMER Datacide
INDEX 01 00:00:00

CD3

Продолжительность: 01:12:43
Треклист:

01. Electro Harmonix - Floating Sync (11:00)
02. Namlook - The Gate To The Milky Way (Excerpt From Namlook IX) (08:29)
03. David Reeves - Astralbohrer (05:39)
04. Chris Meloche - Loop 6 (Excerpt) (10:02)
05. The Whole Traffic - Talk (16:22)
06. Daniel Pemberton - Antarctica (06:24)
07. Aerial Service Area - Another Green Airport (14:47)

EAC


X Lossless Decoder version 20131102 (145.0)

XLD extraction logfile from 2014-01-22 10:39:24 -0500

Various Artists / The Ambient Cookbook (disc 3 of 4)

Used drive : PIONEER DVD-RW DVR-112D (revision BC14)
Media type : Pressed CD

Ripper mode : XLD Secure Ripper
Disable audio cache : OK for the drive with a cache less than 1375KiB
Make use of C2 pointers : NO
Read offset correction : 48
Max retry count : 100
Gap status : Analyzed, Appended

TOC of the extracted CD
Track | Start | Length | Start sector | End sector
---------------------------------------------------------
1 | 00:00:30 | 10:59:54 | 30 | 49508
2 | 11:00:09 | 08:28:74 | 49509 | 87682
3 | 19:29:08 | 05:39:07 | 87683 | 113114
4 | 25:08:15 | 10:01:70 | 113115 | 158259
5 | 35:10:10 | 16:22:36 | 158260 | 231945
6 | 51:32:46 | 06:23:46 | 231946 | 260716
7 | 57:56:17 | 14:47:37 | 260717 | 327278

AccurateRip Summary (DiscID: 0012befb-00718990-4d110b07)
Track 01 : OK (v1+v2, confidence 11/11)
Track 02 : OK (v1+v2, confidence 11/11)
Track 03 : OK (v1+v2, confidence 11/11)
Track 04 : OK (v1+v2, confidence 11/11)
Track 05 : OK (v1+v2, confidence 11/11)
Track 06 : OK (v1+v2, confidence 11/11)
Track 07 : OK (v1, confidence 9/9)
->All tracks accurately ripped.

All Tracks
Album gain : -1.32 dB
Peak : 0.961273
Statistics
Read error : 0
Jitter error (maybe fixed) : 0
Retry sector count : 3
Damaged sector count : 0

Track 01
Filename : /Volumes/MUSIC/torrents/[flac]/The Ambient Cookbook (1995) [FLAC]/
Compilations - The Ambient Cookbook (disc 3 of 4) (1995) [FLAC]/01 - Electro Harmonix - Floating Sync.flac
Pre-gap length : 00:02:30

Track gain : 0.48 dB
Peak : 0.961273
CRC32 hash (test run) : 4E0D6E02
CRC32 hash : 4E0D6E02
CRC32 hash (skip zero) : 8ECB849D
AccurateRip v1 signature : 9CC4C4D2
AccurateRip v2 signature : 6097A40A
->Accurately ripped (v1+v2, confidence 9+2/11)
Statistics
Read error : 0
Jitter error (maybe fixed) : 0
Retry sector count : 0
Damaged sector count : 0

Track 02
Filename : /Volumes/MUSIC/torrents/[flac]/The Ambient Cookbook (1995) [FLAC]/
Compilations - The Ambient Cookbook (disc 3 of 4) (1995) [FLAC]/02 - Namlook - The Gate to the Milky Way.flac

Track gain : -2.17 dB
Peak : 0.933441
CRC32 hash (test run) : FBC9FFC7
CRC32 hash : FBC9FFC7
CRC32 hash (skip zero) : A9D7B87A
AccurateRip v1 signature : 699E44E3
AccurateRip v2 signature : F45EC782
->Accurately ripped (v1+v2, confidence 9+2/11)
Statistics
Read error : 0
Jitter error (maybe fixed) : 0
Retry sector count : 0
Damaged sector count : 0

Track 03
Filename : /Volumes/MUSIC/torrents/[flac]/The Ambient Cookbook (1995) [FLAC]/
Compilations - The Ambient Cookbook (disc 3 of 4) (1995) [FLAC]/03 - Otras 2 - Astralbohrer.flac

Track gain : -0.23 dB
Peak : 0.855194
CRC32 hash (test run) : DE06FC1F
CRC32 hash : DE06FC1F
CRC32 hash (skip zero) : 92671D24
AccurateRip v1 signature : 0A5F8664
AccurateRip v2 signature : 197F6957
->Accurately ripped (v1+v2, confidence 9+2/11)
Statistics
Read error : 0
Jitter error (maybe fixed) : 0
Retry sector count : 0
Damaged sector count : 0

Track 04
Filename : /Volumes/MUSIC/torrents/[flac]/The Ambient Cookbook (1995) [FLAC]/
Compilations - The Ambient Cookbook (disc 3 of 4) (1995) [FLAC]/04 - Recurring Dreams of the Urban Myth - excerpt.flac

Track gain : -2.60 dB
Peak : 0.947540
CRC32 hash (test run) : DBD0C2C6
CRC32 hash : DBD0C2C6
CRC32 hash (skip zero) : B2BBAB5D
AccurateRip v1 signature : 9B31C586
AccurateRip v2 signature : B83DC904
->Accurately ripped (v1+v2, confidence 9+2/11)
Statistics
Read error : 0
Jitter error (maybe fixed) : 0
Retry sector count : 0
Damaged sector count : 0

Track 05
Filename : /Volumes/MUSIC/torrents/[flac]/The Ambient Cookbook (1995) [FLAC]/
Compilations - The Ambient Cookbook (disc 3 of 4) (1995) [FLAC]/05 - A Day in the Park - Talk.flac

Track gain : 5.19 dB
Peak : 0.938507
CRC32 hash (test run) : BE5880D8
CRC32 hash : BE5880D8
CRC32 hash (skip zero) : 835A9E9F
AccurateRip v1 signature : 26AE7D81
AccurateRip v2 signature : FF1955DC
->Accurately ripped (v1+v2, confidence 9+2/11)
Statistics
Read error : 0
Jitter error (maybe fixed) : 0
Retry sector count : 0
Damaged sector count : 0

Track 06
Filename : /Volumes/MUSIC/torrents/[flac]/The Ambient Cookbook (1995) [FLAC]/
Compilations - The Ambient Cookbook (disc 3 of 4) (1995) [FLAC]/06 - Bedroom - Antarctica.flac

Track gain : -3.68 dB
Peak : 0.864349
CRC32 hash (test run) : 6ACE9230
CRC32 hash : 6ACE9230
CRC32 hash (skip zero) : B5AC4E05
AccurateRip v1 signature : 8623ECF2
AccurateRip v2 signature : 2B85AA55
->Accurately ripped (v1+v2, confidence 9+2/11)
Statistics
Read error : 0
Jitter error (maybe fixed) : 0
Retry sector count : 0
Damaged sector count : 0

Track 07
Filename : /Volumes/MUSIC/torrents/[flac]/The Ambient Cookbook (1995) [FLAC]/
Compilations - The Ambient Cookbook (disc 3 of 4) (1995) [FLAC]/07 - Aerial Service Area - Another Green Airport.flac

Track gain : 7.41 dB
Peak : 0.271240
CRC32 hash (test run) : 2AFEA0CE
CRC32 hash : 2AFEA0CE
CRC32 hash (skip zero) : 898BA8FD
AccurateRip v1 signature : 8A941815
AccurateRip v2 signature : 4D5A99D3
->Accurately ripped (v1, confidence 9/9)
Statistics
Read error : 0
Jitter error (maybe fixed) : 0
Retry sector count : 3
Damaged sector count : 0

No errors occurred

End of status report

-----BEGIN XLD SIGNATURE-----
sdoBljK5Ct3kb8HDzn2M_360YVkyGjqaofCnjWVKwYCNIy9CMFiDO_VDbAcLxjdQ5dbL7qH80vmdqTP1QgEaiUBo1gFcLmTCFOg6imK
-----END XLD SIGNATURE-----

CUE


REM GENRE "Ambient"
REM DATE "1995"
REM DISCNUMBER 3
REM TOTALDISCS 4
REM DISCID 4D110B07
PERFORMER Various
TITLE "The Ambient Cookbook"
FILE "01. Electro Harmonix - Floating Sync.flac" WAVE
TRACK 1 AUDIO
TITLE "Floating Sync"
PERFORMER "Electro Harmonix"
INDEX 01 00:00:00
FILE "02. Namlook - The Gate To The Milky Way (Excerpt From Namlook IX).flac" WAVE
TRACK 2 AUDIO
TITLE "The Gate To The Milky Way (Excerpt From Namlook Ix)"
PERFORMER Namlook
INDEX 01 00:00:00
FILE "03. David Reeves - Astralbohrer.flac" WAVE
TRACK 3 AUDIO
TITLE Astralbohrer
PERFORMER "David Reeves"
INDEX 01 00:00:00
FILE "04. Chris Meloche - Loop 6 (Excerpt).flac" WAVE
TRACK 4 AUDIO
TITLE "Loop 6 (Excerpt)"
PERFORMER "Chris Meloche"
INDEX 01 00:00:00
FILE "05. The Whole Traffic - Talk.flac" WAVE
TRACK 5 AUDIO
TITLE Talk
PERFORMER "The Whole Traffic"
INDEX 01 00:00:00
FILE "06. Daniel Pemberton - Antarctica.flac" WAVE
TRACK 6 AUDIO
TITLE Antarctica
PERFORMER "Daniel Pemberton"
INDEX 01 00:00:00
FILE "07. Aerial Service Area - Another Green Airport.flac" WAVE
TRACK 7 AUDIO
TITLE "Another Green Airport"
PERFORMER "Aerial Service Area"
INDEX 01 00:00:00

CD4

Продолжительность: 01:09:51
Треклист:

01. Pete Namlook - Music For Ballet (Excerpt) (07:29)
02. Transonic - Whirlpool (Slow Spiral Of Clouds) Excerpt (06:16)
03. David Moufang - In / Out (15:31)
04. XJacks - Celophane (10:26)
05. Wechselspannung - Wechselspannung (Excerpt) (06:41)
06. Organic Cloud - Chill In Chill Out (12:21)
07. Namlook - Subharmonic Interference (Excerpt From Namlook VII) (11:07)

EAC


X Lossless Decoder version 20131102 (145.0)

XLD extraction logfile from 2014-01-22 11:01:44 -0500

Various Artists / The Ambient Cookbook (disc 4 of 4)

Used drive : PIONEER DVD-RW DVR-112D (revision BC14)
Media type : Pressed CD

Ripper mode : XLD Secure Ripper
Disable audio cache : OK for the drive with a cache less than 1375KiB
Make use of C2 pointers : NO
Read offset correction : 48
Max retry count : 100
Gap status : Analyzed, Appended

TOC of the extracted CD
Track | Start | Length | Start sector | End sector
---------------------------------------------------------
1 | 00:00:30 | 07:28:61 | 30 | 33690
2 | 07:29:16 | 06:15:69 | 33691 | 61884
3 | 13:45:10 | 15:31:07 | 61885 | 131716
4 | 29:16:17 | 10:25:74 | 131717 | 178665
5 | 39:42:16 | 06:40:74 | 178666 | 208739
6 | 46:23:15 | 12:20:72 | 208740 | 264311
7 | 58:44:12 | 11:06:59 | 264312 | 314320

AccurateRip Summary (DiscID: 00123592-006f3e59-69105e07)
Track 01 : OK (v1+v2, confidence 11/11)
Track 02 : OK (v1+v2, confidence 11/11)
Track 03 : OK (v1+v2, confidence 11/11)
Track 04 : OK (v1+v2, confidence 11/11)
Track 05 : OK (v1+v2, confidence 11/11)
Track 06 : OK (v1+v2, confidence 11/11)
Track 07 : OK (v1, confidence 9/9)
->All tracks accurately ripped.

All Tracks
Album gain : 0.35 dB
Peak : 1.000000
Statistics
Read error : 0
Jitter error (maybe fixed) : 0
Retry sector count : 0
Damaged sector count : 0

Track 01
Filename : /Volumes/MUSIC/torrents/[flac]/The Ambient Cookbook (1995) [FLAC]/
Compilations - The Ambient Cookbook (disc 4 of 4) (1995) [FLAC]/01 - Music For Ballet - excerpt.flac
Pre-gap length : 00:02:30

Track gain : 1.53 dB
Peak : 0.726410
CRC32 hash (test run) : 281541BF
CRC32 hash : 281541BF
CRC32 hash (skip zero) : 766DCA8B
AccurateRip v1 signature : 23784F9A
AccurateRip v2 signature : BC9BBD38
->Accurately ripped (v1+v2, confidence 9+2/11)
Statistics
Read error : 0
Jitter error (maybe fixed) : 0
Retry sector count : 0
Damaged sector count : 0

Track 02
Filename : /Volumes/MUSIC/torrents/[flac]/The Ambient Cookbook (1995) [FLAC]/
Compilations - The Ambient Cookbook (disc 4 of 4) (1995) [FLAC]/02 - Transonic 2 - Whirlpool (Slow Spiral of Clouds) (excerpt).flac

Track gain : 7.55 dB
Peak : 0.330353
CRC32 hash (test run) : 4983D50F
CRC32 hash : 4983D50F
CRC32 hash (skip zero) : 78A02A31
AccurateRip v1 signature : 3C1FD808
AccurateRip v2 signature : 58E387EC
->Accurately ripped (v1+v2, confidence 9+2/11)
Statistics
Read error : 0
Jitter error (maybe fixed) : 0
Retry sector count : 0
Damaged sector count : 0

Track 03
Filename : /Volumes/MUSIC/torrents/[flac]/The Ambient Cookbook (1995) [FLAC]/
Compilations - The Ambient Cookbook (disc 4 of 4) (1995) [FLAC]/03 - Solitaire - In-Out.flac

Track gain : 0.60 dB
Peak : 0.999939
CRC32 hash (test run) : 8B15D014
CRC32 hash : 8B15D014
CRC32 hash (skip zero) : EAF76E05
AccurateRip v1 signature : CBB11C66
AccurateRip v2 signature : 73ABD46B
->Accurately ripped (v1+v2, confidence 9+2/11)
Statistics
Read error : 0
Jitter error (maybe fixed) : 0
Retry sector count : 0
Damaged sector count : 0

Track 04
Filename : /Volumes/MUSIC/torrents/[flac]/The Ambient Cookbook (1995) [FLAC]/
Compilations - The Ambient Cookbook (disc 4 of 4) (1995) [FLAC]/04 - XJacks - Cellophane.flac

Track gain : 6.32 dB
Peak : 0.591583
CRC32 hash (test run) : B75A5604
CRC32 hash : B75A5604
CRC32 hash (skip zero) : 024D44C4
AccurateRip v1 signature : 7DC98859
AccurateRip v2 signature : B86B3E4B
->Accurately ripped (v1+v2, confidence 9+2/11)
Statistics
Read error : 0
Jitter error (maybe fixed) : 0
Retry sector count : 0
Damaged sector count : 0

Track 05
Filename : /Volumes/MUSIC/torrents/[flac]/The Ambient Cookbook (1995) [FLAC]/
Compilations - The Ambient Cookbook (disc 4 of 4) (1995) [FLAC]/05 - Wechselspannung - excerpt.flac

Track gain : -2.12 dB
Peak : 0.890076
CRC32 hash (test run) : B293AD57
CRC32 hash : B293AD57
CRC32 hash (skip zero) : A5332492
AccurateRip v1 signature : 0E70AD21
AccurateRip v2 signature : 554BF488
->Accurately ripped (v1+v2, confidence 9+2/11)
Statistics
Read error : 0
Jitter error (maybe fixed) : 0
Retry sector count : 0
Damaged sector count : 0

Track 06
Filename : /Volumes/MUSIC/torrents/[flac]/The Ambient Cookbook (1995) [FLAC]/
Compilations - The Ambient Cookbook (disc 4 of 4) (1995) [FLAC]/06 - Organic Cloud - Chill In, Chill Out.flac

Track gain : 1.66 dB
Peak : 0.607361
CRC32 hash (test run) : 71AF1684
CRC32 hash : 71AF1684
CRC32 hash (skip zero) : C500063C
AccurateRip v1 signature : BB2A4053
AccurateRip v2 signature : E6645BF4
->Accurately ripped (v1+v2, confidence 9+2/11)
Statistics
Read error : 0
Jitter error (maybe fixed) : 0
Retry sector count : 0
Damaged sector count : 0

Track 07
Filename : /Volumes/MUSIC/torrents/[flac]/The Ambient Cookbook (1995) [FLAC]/
Compilations - The Ambient Cookbook (disc 4 of 4) (1995) [FLAC]/07 - Namlook - Subharmonic Interference (excerpt).flac

Track gain : -0.22 dB
Peak : 1.000000
CRC32 hash (test run) : 88597209
CRC32 hash : 88597209
CRC32 hash (skip zero) : AAE8DAA8
AccurateRip v1 signature : EDF926A8
AccurateRip v2 signature : 0103116F
->Accurately ripped (v1, confidence 9/9)
Statistics
Read error : 0
Jitter error (maybe fixed) : 0
Retry sector count : 0
Damaged sector count : 0

No errors occurred

End of status report

-----BEGIN XLD SIGNATURE-----
QdTZJuUqvIbvuZoF7qDXZYSetBGIdjGxIcMu6d3KHeAkETCE9keooFtLAajKDUFqFP7ge7LHhjbeu6M8q6dQ5kZ64w4aLtalbeeJxlS
-----END XLD SIGNATURE-----

CUE


REM GENRE "Ambient"
REM DATE "1995"
REM DISCNUMBER 4
REM TOTALDISCS 4
REM DISCID 69105E07
PERFORMER Various
TITLE "The Ambient Cookbook"
FILE "01. Pete Namlook - Music For Ballet (Excerpt).flac" WAVE
TRACK 1 AUDIO
TITLE "Music For Ballet (Excerpt)"
PERFORMER "Pete Namlook"
INDEX 01 00:00:00
FILE "02. Transonic - Whirlpool (Slow Spiral Of Clouds) Excerpt.flac" WAVE
TRACK 2 AUDIO
TITLE "Whirlpool (Slow Spiral Of Clouds) Excerpt"
PERFORMER Transonic
INDEX 01 00:00:00
FILE "03. David Moufang - In , Out.flac" WAVE
TRACK 3 AUDIO
TITLE "In / Out"
PERFORMER "David Moufang"
INDEX 01 00:00:00
FILE "04. XJacks - Celophane.flac" WAVE
TRACK 4 AUDIO
TITLE Celophane
PERFORMER Xjacks
INDEX 01 00:00:00
FILE "05. Wechselspannung - Wechselspannung (Excerpt).flac" WAVE
TRACK 5 AUDIO
TITLE "Wechselspannung (Excerpt)"
PERFORMER Wechselspannung
INDEX 01 00:00:00
FILE "06. Organic Cloud - Chill In Chill Out.flac" WAVE
TRACK 6 AUDIO
TITLE "Chill In Chill Out"
PERFORMER "Organic Cloud"
INDEX 01 00:00:00
FILE "07. Namlook - Subharmonic Interference (Excerpt From Namlook VII).flac" WAVE
TRACK 7 AUDIO
TITLE "Subharmonic Interference (Excerpt From Namlook Vii)"
PERFORMER Namlook
INDEX 01 00:00:00

Discogs

Детали торрента:
Название:VA - The Ambient Cookbook (1995) Fax +49-69/450464 [FLAC|Lossless|tracks+.cue] <Ambient, Tribal, IDM, Downtempo, Experimental>
Дата добавления:26 Сен 2018 18:17:24
Размер:1,26 GB
Раздают:2
Качают:0
Форум:Easy listening (Lossless)

All rights reserved © 2015-2019