TORRENTS45.XYZ

Скачать VA - One Love (2007) 2CD [FLAC|Lossless|image + .cue] <Pop, Rock, Funk, Soul>


VA - One Love♥ (2007) 2CD


Страна: All World
Жанр: Pop, Rock, Funk, Soul
Издание: Universal Music TV - 9846548
Кодек: FLAC Битрейт: Lossless Тип рипа: image + .cue+scans
Продолжительность: 02:20:50

CD1:

Продолжительность - 01:10:21
Треклист:

01. Take That - Patience (3:21)
02. James Morrison - You Give Me Something (3:33)
03. Mariah Carey - We Belong Together (3:21)
04. The Feeling - I Love It When You Call (3:35)
05. Katie Melua - Closest Thing To Crazy (4:12)
06. Girls Aloud - I'll Stand By You (3:45)
07. Sugababes - Too Lost In You (3:34)
08. Gabrielle - Out Of Reach (3:16)
09. Liz Mclarnon - Woman In Love (3:38)
10. Ne-Yo - Sexy Love (3:38)
11. Pussycat Dolls - Stickwitu (3:28)
12. Rihanna - Unfaithful (3:47)
13. Boyz II Men - I'll Make Love To You (3:56)
14. Cascada - Everytime We Touch (Yanou's Candlelight Mix) (3:17)
15. Wet Wet Wet - Goodnight Girl (3:41)
16. 10cc - I'm Not In Love (6:00)
17. ABC - The Look Of Love (3:11)
18. Lionel Richie - My Destiny (3:42)
19. Emma Bunton - Downtown (3:27)

Отчёт EAC:


Exact Audio Copy V1.3 from 2. September 2016

EAC extraction logfile from 8. September 2018, 15:23

VA - Pop music, Vocal / One Love [CD1]

Used drive : HL-DT-STCD-RW GCE-8526B Adapter: 0 ID: 0

Read mode : Secure
Utilize accurate stream : Yes
Defeat audio cache : Yes
Make use of C2 pointers : No

Read offset correction : 6
Overread into Lead-In and Lead-Out : No
Fill up missing offset samples with silence : Yes
Delete leading and trailing silent blocks : No
Null samples used in CRC calculations : Yes
Used interface : Installed external ASPI interface

Used output format : User Defined Encoder
Selected bitrate : 128 kBit/s
Quality : High
Add ID3 tag : No
Command line compressor : C:\Program Files (x86)\Exact Audio Copy\FLAC\FLAC.EXE
Additional command line options : -V -8 -T "Date=%year%" -T "Genre=%genre%" -T"COMMENT=Ripped by vinni0809" -8 -V %source%

TOC of the extracted CD

Track | Start | Length | Start sector | End sector
---------------------------------------------------------
1 | 0:00.00 | 3:20.40 | 0 | 15039
2 | 3:20.40 | 3:33.02 | 15040 | 31016
3 | 6:53.42 | 3:20.48 | 31017 | 46064
4 | 10:14.15 | 3:34.69 | 46065 | 62183
5 | 13:49.09 | 4:12.18 | 62184 | 81101
6 | 18:01.27 | 3:44.41 | 81102 | 97942
7 | 21:45.68 | 3:33.45 | 97943 | 113962
8 | 25:19.38 | 3:16.11 | 113963 | 128673
9 | 28:35.49 | 3:38.28 | 128674 | 145051
10 | 32:14.02 | 3:38.24 | 145052 | 161425
11 | 35:52.26 | 3:28.18 | 161426 | 177043
12 | 39:20.44 | 3:47.20 | 177044 | 194088
13 | 43:07.64 | 3:56.26 | 194089 | 211814
14 | 47:04.15 | 3:16.45 | 211815 | 226559
15 | 50:20.60 | 3:40.46 | 226560 | 243105
16 | 54:01.31 | 5:59.66 | 243106 | 270096
17 | 60:01.22 | 3:11.02 | 270097 | 284423
18 | 63:12.24 | 3:41.40 | 284424 | 301038
19 | 66:53.64 | 3:27.14 | 301039 | 316577

Range status and errors

Selected range

Filename F:\vinni0809\VA - Pop music, Vocal - One Love [CD1].wav

Peak level 100.0 %
Extraction speed 2.8 X
Range quality 99.9 %
Test CRC 0A1C7811
Copy CRC 0A1C7811
Copy OK

No errors occurred

AccurateRip summary

Track 1 accurately ripped (confidence 6) [2CB7A83C] (AR v1)
Track 2 accurately ripped (confidence 6) [54B34E47] (AR v1)
Track 3 accurately ripped (confidence 6) [4123ECA5] (AR v1)
Track 4 accurately ripped (confidence 5) [38558E8E] (AR v1)
Track 5 accurately ripped (confidence 5) [2FEFE934] (AR v1)
Track 6 accurately ripped (confidence 6) [6BA407DF] (AR v1)
Track 7 accurately ripped (confidence 6) [CF18D731] (AR v1)
Track 8 accurately ripped (confidence 6) [31C8FF0D] (AR v1)
Track 9 accurately ripped (confidence 6) [FD9FD8C0] (AR v1)
Track 10 accurately ripped (confidence 6) [A931FD55] (AR v1)
Track 11 accurately ripped (confidence 6) [1CA96816] (AR v1)
Track 12 accurately ripped (confidence 6) [2F374C71] (AR v1)
Track 13 accurately ripped (confidence 6) [5BE636BD] (AR v1)
Track 14 accurately ripped (confidence 6) [588D328B] (AR v1)
Track 15 accurately ripped (confidence 6) [69C32E11] (AR v1)
Track 16 accurately ripped (confidence 5) [BE87BC23] (AR v1)
Track 17 cannot be verified as accurate (confidence 6) [99CC5F79], AccurateRip returned [D22EAA5B] (AR v2)
Track 18 accurately ripped (confidence 5) [F5056DDB] (AR v1)
Track 19 accurately ripped (confidence 5) [32CF71BE] (AR v1)

18 трек(и) скопированы точно
1 трек(и) не удалось проверить на точность

Some tracks could not be verified as accurate

End of status report

---- CUETools DB Plugin V2.1.6

[CTDB TOCID: Srxo9xlg1I81bsyZ7AYUVZn7QQY-] found
Submit result: Srxo9xlg1I81bsyZ7AYUVZn7QQY- has been submitted
Track | CTDB Status
1 | (2/2) Accurately ripped
2 | (2/2) Accurately ripped
3 | (2/2) Accurately ripped
4 | (2/2) Accurately ripped
5 | (2/2) Accurately ripped
6 | (2/2) Accurately ripped
7 | (2/2) Accurately ripped
8 | (2/2) Accurately ripped
9 | (2/2) Accurately ripped
10 | (2/2) Accurately ripped
11 | (2/2) Accurately ripped
12 | (2/2) Accurately ripped
13 | (2/2) Accurately ripped
14 | (2/2) Accurately ripped
15 | (2/2) Accurately ripped
16 | (2/2) Accurately ripped
17 | (2/2) Differs in 17 samples @00:27:59,02:10:48
18 | (2/2) Accurately ripped
19 | (2/2) Accurately ripped
If you are sure that your rip contains errors, you can use CUETools to repair it.

==== Log checksum 52EB7BC56561908506D5E145E39232B82CC4375902CE5B7CF9BD5152374CD7AB ====

Cue Sheet (.cue):


REM GENRE Pop
REM DATE 2007
REM DISCID EF107D13
REM COMMENT "ExactAudioCopy v1.3"
PERFORMER "VA - Pop music, Vocal"
TITLE "One Love [CD1]"
REM COMPOSER ""
FILE "VA - Pop music, Vocal - One Love [CD1].flac" WAVE
TRACK 01 AUDIO
TITLE "Take That - Patience"
PERFORMER "VA - Pop music, Vocal"
REM COMPOSER ""
INDEX 01 00:00:00
TRACK 02 AUDIO
TITLE "James Morrison - You Give Me Something"
PERFORMER "VA - Pop music, Vocal"
REM COMPOSER ""
INDEX 00 03:19:60
INDEX 01 03:20:40
TRACK 03 AUDIO
TITLE "Mariah Carey - We Belong Together"
PERFORMER "VA - Pop music, Vocal"
REM COMPOSER ""
INDEX 00 06:52:62
INDEX 01 06:53:42
TRACK 04 AUDIO
TITLE "The Feeling - I Love It When You Call"
PERFORMER "VA - Pop music, Vocal"
REM COMPOSER ""
INDEX 00 10:13:35
INDEX 01 10:14:15
TRACK 05 AUDIO
TITLE "Katie Melua - Closest Thing To Crazy"
PERFORMER "VA - Pop music, Vocal"
REM COMPOSER ""
INDEX 00 13:48:29
INDEX 01 13:49:09
TRACK 06 AUDIO
TITLE "Girls Aloud - I'll Stand By You"
PERFORMER "VA - Pop music, Vocal"
REM COMPOSER ""
INDEX 00 18:00:47
INDEX 01 18:01:27
TRACK 07 AUDIO
TITLE "Sugababes - Too Lost In You"
PERFORMER "VA - Pop music, Vocal"
REM COMPOSER ""
INDEX 00 21:45:13
INDEX 01 21:45:68
TRACK 08 AUDIO
TITLE "Gabrielle - Out Of Reach"
PERFORMER "VA - Pop music, Vocal"
REM COMPOSER ""
INDEX 00 25:18:58
INDEX 01 25:19:38
TRACK 09 AUDIO
TITLE "Liz Mclarnon - Woman In Love"
PERFORMER "VA - Pop music, Vocal"
REM COMPOSER ""
INDEX 00 28:34:69
INDEX 01 28:35:49
TRACK 10 AUDIO
TITLE "Ne-Yo - Sexy Love"
PERFORMER "VA - Pop music, Vocal"
REM COMPOSER ""
INDEX 00 32:13:22
INDEX 01 32:14:02
TRACK 11 AUDIO
TITLE "Pussycat Dolls - Stickwitu"
PERFORMER "VA - Pop music, Vocal"
REM COMPOSER ""
INDEX 00 35:51:46
INDEX 01 35:52:26
TRACK 12 AUDIO
TITLE "Rihanna - Unfaithful"
PERFORMER "VA - Pop music, Vocal"
REM COMPOSER ""
INDEX 00 39:19:64
INDEX 01 39:20:44
TRACK 13 AUDIO
TITLE "Boyz II Men - I'll Make Love To You"
PERFORMER "VA - Pop music, Vocal"
REM COMPOSER ""
INDEX 00 43:07:09
INDEX 01 43:07:64
TRACK 14 AUDIO
TITLE "Cascada - Everytime We Touch (Yanou's Candlelight Mix)"
PERFORMER "VA - Pop music, Vocal"
REM COMPOSER ""
INDEX 00 47:03:35
INDEX 01 47:04:15
TRACK 15 AUDIO
TITLE "Wet Wet Wet - Goodnight Girl"
PERFORMER "VA - Pop music, Vocal"
REM COMPOSER ""
INDEX 00 50:20:05
INDEX 01 50:20:60
TRACK 16 AUDIO
TITLE "10cc - I'm Not In Love"
PERFORMER "VA - Pop music, Vocal"
REM COMPOSER ""
INDEX 00 54:00:51
INDEX 01 54:01:31
TRACK 17 AUDIO
TITLE "ABC - The Look Of Love"
PERFORMER "VA - Pop music, Vocal"
REM COMPOSER ""
INDEX 00 60:00:42
INDEX 01 60:01:22
TRACK 18 AUDIO
TITLE "Lionel Richie - My Destiny"
PERFORMER "VA - Pop music, Vocal"
REM COMPOSER ""
INDEX 00 63:11:44
INDEX 01 63:12:24
TRACK 19 AUDIO
TITLE "Emma Bunton - Downtown"
PERFORMER "VA - Pop music, Vocal"
REM COMPOSER ""
INDEX 00 66:53:09
INDEX 01 66:53:64

Отчёт auCDtect Task manager:


-----------------------

DON'T MODIFY THIS FILE

-----------------------

PERFORMER: auCDtect Task Manager, ver. 1.6.0 RC1 build 1.6.0.1
Copyright (c) 2008-2010 y-soft. All rights reserved
http://y-soft.org

ANALYZER: auCDtect: CD records authenticity detector, version 0.8.2
Copyright (c) 2004 Oleg Berngardt. All rights reserved.
Copyright (c) 2004 Alexander Djourik. All rights reserved.

FILE: VA - Pop music, Vocal - One Love [CD1].flac
Size: 495461272 Hash: B0522DB34864DD59668429B4086EA058 Accuracy: -m0
Conclusion: CDDA 99%
Signature: 3AA09896F487A5F2ED43044848210EF2DAF51E54

CD2:

Продолжительность - 01:10:29
Треклист:

01. Chasing Cars (4:27)
02. Somewhere Else (3:15)
03. If Tomorrow Never Comes (3:36)
04. If You're Not The One (4:02)
05. Baby Can I Hold You (3:14)
06. You Do Something To Me (3:33)
07. What You're Made Of (3:49)
08. A Thousand Miles (3:58)
09. Up Where We Belong (3:48)
10. It's All Coming Back To me (6:06)
11. Get Here (4:28)
12. Hearbeats (2:39)
13. Everlasting Love (3:21)
14. Let's Stay Together (3:15)
15. You Are Everything (3:02)
16. Three Times A Lady (3:36)
17. The Look Of Love (3:32)
18. Your Can't Hurry Love (2:50)
19. Your Song (4:01)

Отчёт EAC:

Exact Audio Copy V1.3 from 2. September 2016

EAC extraction logfile from 8. September 2018, 17:24

Various / One Love (CD2)

Used drive : HL-DT-STCD-RW GCE-8526B Adapter: 0 ID: 0

Read mode : Secure
Utilize accurate stream : Yes
Defeat audio cache : Yes
Make use of C2 pointers : No

Read offset correction : 6
Overread into Lead-In and Lead-Out : No
Fill up missing offset samples with silence : Yes
Delete leading and trailing silent blocks : No
Null samples used in CRC calculations : Yes
Used interface : Installed external ASPI interface

Used output format : User Defined Encoder
Selected bitrate : 128 kBit/s
Quality : High
Add ID3 tag : No
Command line compressor : C:\Program Files (x86)\Exact Audio Copy\FLAC\FLAC.EXE
Additional command line options : -V -8 -T "Date=%year%" -T "Genre=%genre%" -T"COMMENT=Ripped by vinni0809" -8 -V %source%

TOC of the extracted CD

Track | Start | Length | Start sector | End sector
---------------------------------------------------------
1 | 0:00.00 | 4:27.12 | 0 | 20036
2 | 4:27.12 | 3:15.08 | 20037 | 34669
3 | 7:42.20 | 3:35.47 | 34670 | 50841
4 | 11:17.67 | 4:01.53 | 50842 | 68969
5 | 15:19.45 | 3:13.66 | 68970 | 83510
6 | 18:33.36 | 3:32.72 | 83511 | 99482
7 | 22:06.33 | 3:48.52 | 99483 | 116634
8 | 25:55.10 | 3:57.55 | 116635 | 134464
9 | 29:52.65 | 3:47.39 | 134465 | 151528
10 | 33:40.29 | 6:05.70 | 151529 | 178973
11 | 39:46.24 | 4:27.62 | 178974 | 199060
12 | 44:14.11 | 2:39.13 | 199061 | 210998
13 | 46:53.24 | 3:20.44 | 210999 | 226042
14 | 50:13.68 | 3:14.55 | 226043 | 240647
15 | 53:28.48 | 3:01.66 | 240648 | 254288
16 | 56:30.39 | 3:35.66 | 254289 | 270479
17 | 60:06.30 | 3:31.62 | 270480 | 286366
18 | 63:38.17 | 2:49.51 | 286367 | 299092
19 | 66:27.68 | 4:01.31 | 299093 | 317198

Range status and errors

Selected range

Filename F:\vinni0809\Various - One Love (CD2).wav

Peak level 100.0 %
Extraction speed 4.6 X
Range quality 100.0 %
Test CRC 351FDAC2
Copy CRC 351FDAC2
Copy OK

No errors occurred

AccurateRip summary

Track 1 accurately ripped (confidence 2) [528F3009] (AR v2)
Track 2 accurately ripped (confidence 2) [5C53D513] (AR v2)
Track 3 accurately ripped (confidence 2) [340A836F] (AR v2)
Track 4 accurately ripped (confidence 2) [5C0AB9E7] (AR v2)
Track 5 accurately ripped (confidence 2) [44E5B50C] (AR v2)
Track 6 accurately ripped (confidence 2) [50C9ED9D] (AR v2)
Track 7 accurately ripped (confidence 2) [FDBEC785] (AR v2)
Track 8 accurately ripped (confidence 2) [EF4942AB] (AR v2)
Track 9 accurately ripped (confidence 2) [765B5B38] (AR v2)
Track 10 accurately ripped (confidence 2) [4BA74ADD] (AR v2)
Track 11 accurately ripped (confidence 2) [E468FEDB] (AR v2)
Track 12 accurately ripped (confidence 2) [C1C8534F] (AR v2)
Track 13 accurately ripped (confidence 2) [A318C374] (AR v2)
Track 14 accurately ripped (confidence 6) [30DEAFC1] (AR v1)
Track 15 accurately ripped (confidence 2) [ECFC4296] (AR v2)
Track 16 accurately ripped (confidence 2) [658974BA] (AR v2)
Track 17 accurately ripped (confidence 2) [B8D838FC] (AR v2)
Track 18 accurately ripped (confidence 6) [97FBB12B] (AR v1)
Track 19 accurately ripped (confidence 6) [EF407D5D] (AR v1)

All tracks accurately ripped

End of status report

---- CUETools DB Plugin V2.1.6

[CTDB TOCID: uN5.F7afRn0w4aUuXDClo5R13tI-] found
Submit result: uN5.F7afRn0w4aUuXDClo5R13tI- has been confirmed
Track | CTDB Status
1 | (2/2) Accurately ripped
2 | (2/2) Accurately ripped
3 | (2/2) Accurately ripped
4 | (2/2) Accurately ripped
5 | (2/2) Accurately ripped
6 | (2/2) Accurately ripped
7 | (2/2) Accurately ripped
8 | (2/2) Accurately ripped
9 | (2/2) Accurately ripped
10 | (2/2) Accurately ripped
11 | (2/2) Accurately ripped
12 | (2/2) Accurately ripped
13 | (2/2) Accurately ripped
14 | (2/2) Accurately ripped
15 | (2/2) Accurately ripped
16 | (2/2) Accurately ripped
17 | (2/2) Accurately ripped
18 | (2/2) Accurately ripped
19 | (2/2) Accurately ripped

==== Log checksum 1579D13B43908FD93F75BDBDF6AE235E2C23BA141409D2ACAC349F09E0E7C6ED ====

Cue Sheet (.cue):

REM GENRE Pop
REM DATE 2007
REM DISCID 1A108513
REM COMMENT "ExactAudioCopy v1.3"
PERFORMER "Various"
TITLE "One Love (CD2)"
REM COMPOSER ""
FILE "Various - One Love (CD2).flac" WAVE
TRACK 01 AUDIO
TITLE "Chasing Cars"
PERFORMER "Snow Patrol"
REM COMPOSER ""
INDEX 01 00:00:00
TRACK 02 AUDIO
TITLE "Somewhere Else"
PERFORMER "Razorlight"
REM COMPOSER ""
INDEX 00 04:26:32
INDEX 01 04:27:12
TRACK 03 AUDIO
TITLE "If Tomorrow Never Comes"
PERFORMER "Ronan Keating"
REM COMPOSER ""
INDEX 00 07:41:40
INDEX 01 07:42:20
TRACK 04 AUDIO
TITLE "If You're Not The One"
PERFORMER "Daniel Bedingfield"
REM COMPOSER ""
INDEX 00 11:17:12
INDEX 01 11:17:67
TRACK 05 AUDIO
TITLE "Baby Can I Hold You"
PERFORMER "Boyzone"
REM COMPOSER ""
INDEX 00 15:18:65
INDEX 01 15:19:45
TRACK 06 AUDIO
TITLE "You Do Something To Me"
PERFORMER "Paul Weller"
REM COMPOSER ""
INDEX 00 18:32:56
INDEX 01 18:33:36
TRACK 07 AUDIO
TITLE "What You're Made Of"
PERFORMER "Lucie Silvas"
REM COMPOSER ""
INDEX 00 22:05:53
INDEX 01 22:06:33
TRACK 08 AUDIO
TITLE "A Thousand Miles"
PERFORMER "Vanessa Carlton"
REM COMPOSER ""
INDEX 00 25:54:30
INDEX 01 25:55:10
TRACK 09 AUDIO
TITLE "Up Where We Belong"
PERFORMER "Joe Cocker & Jenniffer Warne"
REM COMPOSER ""
INDEX 00 29:52:10
INDEX 01 29:52:65
TRACK 10 AUDIO
TITLE "It's All Coming Back To me"
PERFORMER "Meat Loaf"
REM COMPOSER ""
INDEX 00 33:39:49
INDEX 01 33:40:29
TRACK 11 AUDIO
TITLE "Get Here"
PERFORMER "Oleta Adams"
REM COMPOSER ""
INDEX 00 39:45:44
INDEX 01 39:46:24
TRACK 12 AUDIO
TITLE "Hearbeats"
PERFORMER "Jose Gonzalez"
REM COMPOSER ""
INDEX 00 44:13:31
INDEX 01 44:14:11
TRACK 13 AUDIO
TITLE "Everlasting Love"
PERFORMER "Jamie Cullum"
REM COMPOSER ""
INDEX 00 46:52:44
INDEX 01 46:53:24
TRACK 14 AUDIO
TITLE "Let's Stay Together"
PERFORMER "Al Green"
REM COMPOSER ""
INDEX 00 50:13:13
INDEX 01 50:13:68
TRACK 15 AUDIO
TITLE "You Are Everything"
PERFORMER "Diana Ross & Marvin Gaye"
REM COMPOSER ""
INDEX 00 53:27:68
INDEX 01 53:28:48
TRACK 16 AUDIO
TITLE "Three Times A Lady"
PERFORMER "The Commodores"
REM COMPOSER ""
INDEX 00 56:29:59
INDEX 01 56:30:39
TRACK 17 AUDIO
TITLE "The Look Of Love"
PERFORMER "Dusty Springfield"
REM COMPOSER ""
INDEX 00 60:05:50
INDEX 01 60:06:30
TRACK 18 AUDIO
TITLE "Your Can't Hurry Love"
PERFORMER "Supremes"
REM COMPOSER ""
INDEX 00 63:37:37
INDEX 01 63:38:17
TRACK 19 AUDIO
TITLE "Your Song"
PERFORMER "Elton John"
REM COMPOSER ""
INDEX 00 66:27:13
INDEX 01 66:27:68

Отчёт auCDtect Task manager:

-----------------------

DON'T MODIFY THIS FILE

-----------------------

PERFORMER: auCDtect Task Manager, ver. 1.6.0 RC1 build 1.6.0.1
Copyright (c) 2008-2010 y-soft. All rights reserved
http://y-soft.org

ANALYZER: auCDtect: CD records authenticity detector, version 0.8.2
Copyright (c) 2004 Oleg Berngardt. All rights reserved.
Copyright (c) 2004 Alexander Djourik. All rights reserved.

FILE: Various - One Love (CD2).flac
Size: 458778107 Hash: A7081EF30459CCA6783D0504A9E85206 Accuracy: -m0
Conclusion: CDDA 100%
Signature: 9C6D6AA12C93149484D9CC042E0515CABA9752E9

thanks vinni0809
Детали торрента:
Название:VA - One Love (2007) 2CD [FLAC|Lossless|image + .cue] <Pop, Rock, Funk, Soul>
Дата добавления:19 Сен 2018 17:54:26
Размер:970 MB
Раздают:
Качают:0
Форум:Зарубежная поп-музыка (Lossless)

All rights reserved © 2015-2018