TORRENTS45.XYZ

Скачать Бесстыдники / Бесстыжие / Shameless (US) (2018) WEB-DL [H.264/720p-LQ] (сезон 9, серии 1-11 из 14) AlexFilm (обновляемая)


Бесстыдники / Бесстыжие / Shameless (US) (2018) WEB-DL [H.264/720p-LQ] (сезон 9, серии 1-11 из 14)
«The Gallaghers: Absolutely, Wildly, Unapologetically...»

Производство: США / Bonanza Productions, John Wells Productions, Warner Bros. Television
Жанр: драма, комедия

Режиссер: Марк Майлод
Актеры: Уильям Х. Мэйси, Эмми Россам, Итан Каткоски, Шанола Хэмптон, Джереми Аллен Уайт, Стив Хоуи, Эмма Кинни, Камерон Монахэн, Майкл Патрик МакГилл, Исидора Горештер и др.

Описание:
Курсы плавания от Фрэнка, излечение от алкоголизма с Липом, адаптация к ранней беременности по методу Дебби, овладение ресторанном делом с Фионой и многое другое ждёт вас в новом сезоне о похождениях самой интересной семьи на свете. Галлагеры вернулись, а значит, осень в этом году скучной не будет точно!


Возраст: 18+ (зрителям, достигшим 18 лет. запрещено для детей)

Продолжительность: ~00:55:00 серия
Качество видео: WEB-DL
Перевод: Многоголосый закадровый, профессиональный - AlexFilm
Субтитры: английские

Внимание! Присутствует ненормативная лексика.

Видео: AVC/H.264, 1280х720 (16:9), ~2711 Kbps
Аудио 1: AC3, 6 ch, 384 kbps - русский, многоголосый закадровый
Аудио 2: AC3, 6 ch, 384 kbps - английский

Mediainfo:


Общее
Уникальный идентификатор : 249824348858814016229237831106211866854 (0xBBF26B5FCACF0EEDB026CE1AAEBFE8E6)
Полное имя : E:\Сериалы\Shameless (US)\Shameless (US) - Season 9 (AlexFilm)\Shameless.US.s09e01.WEB-DL.720p.Rus.Eng.AlexFilm.mkv
Формат : Matroska
Версия формата : Version 4 / Version 2
Размер файла : 1,34 Гбайт
Продолжительность : 55 м. 14 с.
Общий поток : 3481 Кбит/сек
Название фильма : Shameless US 9x01 @ AlexFilm
Дата кодирования : UTC 2018-09-10 04:03:47
Программа кодирования : mkvmerge v7.9.0 ('Birds') 64bit
Библиотека кодирования : libebml v1.3.1 + libmatroska v1.4.2

Видео
Идентификатор : 1
Формат : AVC
Формат/Информация : Advanced Video Codec
Профиль формата : High@L3.1
Настройки формата : CABAC / 5 Ref Frames
Параметр CABAC формата : Да
Параметр RefFrames формата : 5 кадров
Идентификатор кодека : V_MPEG4/ISO/AVC
Продолжительность : 55 м. 14 с.
Битрейт : 2711 Кбит/сек
Ширина : 1280 пикселей
Высота : 720 пикселей
Соотношение сторон : 16:9
Режим частоты кадров : Постоянный
Частота кадров : 23,976 (24000/1001) кадра/сек
Цветовое пространство : YUV
Субдискретизация насыщенности : 4:2:0
Битовая глубина : 8 бит
Тип развёртки : Прогрессивная
Бит/(Пиксели*Кадры) : 0.123
Размер потока : 1,05 Гбайт (78%)
Default : Да
Forced : Нет
Цветовой диапазон : Limited
Основные цвета : BT.709
Характеристики трансфера : BT.709
Коэффициенты матрицы : BT.709

Аудио #1
Идентификатор : 2
Формат : AC-3
Формат/Информация : Audio Coding 3
Идентификатор кодека : A_AC3
Продолжительность : 55 м. 14 с.
Вид битрейта : Постоянный
Битрейт : 384 Кбит/сек
Каналы : 6 каналов
Расположение каналов : Front: L C R, Side: L R, LFE
Частота : 48,0 КГц
Частота кадров : 31,250 кадров/сек (1536 SPF)
Битовая глубина : 16 бит
Метод сжатия : С потерями
Размер потока : 152 Мбайт (11%)
Заголовок : DD5.1 AlexFilm
Язык : Russian
ServiceKind/String : Complete Main
Default : Да
Forced : Нет

Аудио #2
Идентификатор : 3
Формат : AC-3
Формат/Информация : Audio Coding 3
Идентификатор кодека : A_AC3
Продолжительность : 55 м. 14 с.
Вид битрейта : Постоянный
Битрейт : 384 Кбит/сек
Каналы : 6 каналов
Расположение каналов : Front: L C R, Side: L R, LFE
Частота : 48,0 КГц
Частота кадров : 31,250 кадров/сек (1536 SPF)
Битовая глубина : 16 бит
Метод сжатия : С потерями
Размер потока : 152 Мбайт (11%)
Заголовок : DD5.1 Original
Язык : English
ServiceKind/String : Complete Main
Default : Нет
Forced : Нет

Текст
Идентификатор : 4
Формат : UTF-8
Идентификатор кодека : S_TEXT/UTF8
Идентификатор кодека/Информация : UTF-8 Plain Text
Продолжительность : 53 м. 29 с.
Битрейт : 92 бит/сек
ElementCount : 1365
Размер потока : 36,2 Кбайт (0%)
Заголовок : SDH
Язык : English
Default : Нет
Forced : Нет

Список серий

01. Are You There Shim? It's Me, Ian / Ты там, транс? Это я, Йен
02. Mo White for President / Белого Мо в президенты
03. Weirdo Gallagher Vortex / Воронка х...и Галлагера
04. Do Right, Vote White! / Поступай смело, голосуй за Белого!
05. Black Haired Ginger / Черноволосый Рыжик
06. Face It, You're Gorgeous / Признай, ты великолепна!
07. Down Like The Titanic / Встретимся на дне, Титаник
08. The Apple Doesn't Fall Far from the Alibi / Яблочко от Алиби недалеко упало
09. Boooooooooooone! / Буууууууууууун!
10. Los Diablos! / Блинный ресторан "Пироги Пэтсис"
11. The Hobo Games / Игры хобо

Подготовка релиза:

Перевод: Александра Елизарова
Монтаж и сведение звука: Михаил Шорыгин
Роли озвучивали: Евгения Тихонова, Анастасия Флигина, Константин Погодаев, Дмитрий Лунёв, Кирилл Патрино, Михаил Федосеев

Внимание! Раздача ведётся путём добавления новых серий

Внимание! Раздача ведётся путём добавления новых серий; при каждом добавлении создаётся новый торрент.
Чтобы начать докачку новой серии, пользователям необходимо сделать следующее:
1. Остановить скачивание;
2. Удалить старый торрент у себя из клиента (старые серии удалять не надо);
3. Скачать новый торрент и запустить его у себя в клиенте вместо старого, при этом указать клиенту путь в старую папку куда и должно происходить скачивание новых серий. Ваш клиент при этом должен произвести хеширование (проверку) старой папки и будет докачивать только те серии, которых у вас ещё нет. Старые серии при этом не удаляются, а продолжают раздаваться! Eсли вы уже удалили старые серии, то предотвратить повторную закачку старых серий можно, отжав галочку в соответствующих местах при запуске нового торрента.
Скриншоты:


Все одноименные релизы в Клубе

Смотреть Online


Детали торрента:
Название:Бесстыдники / Бесстыжие / Shameless (US) (2018) WEB-DL [H.264/720p-LQ] (сезон 9, серии 1-11 из 14) AlexFilm (обновляемая)
Дата добавления:17 Фев 2019 16:54:38
Размер:16,4 GB
Раздают:30
Качают:119
Форум:Зарубежные сериалы

All rights reserved © 2015-2019