TORRENTS45.XYZ

Скачать Бремя / Cargo (2017) BDRip [H.264/720p] [MVO]


Бремя / Cargo (2017) BDRip [H.264/720p]
Производство: Австралия / Addictive Pictures, Causeway Films, Head Gear Films
Жанр: Драма, Ужасы

Режиссер: Бен Хоулинг, Иоланда Рамке
Актеры: Мартин Фриман, Энтони Хэйес, Сьюзи Портер, Карин Пиритос, Крис МакКвейд, Наташа Вэнганин, Брюс Картер, Симоне Ландерс, Дэвид Галпилил, Джоесиа Амос

Описание:
На Землю обрушивается зомби-апокалипсис. Главный герой теряет всю свою семью, кроме малышки-дочки. Он отправляется с ней в опасное приключение, чтобы найти аборигенное племя, которое может подарить единственный шанс выжить его дочери.


Дата мировой премьеры: 6 октября 2017

Релиз от:
Torrents45.xyz
Продолжительность: 01:43:37
Качество видео: BDRip (MTeam)
Перевод: Многоголосый закадровый профессиональный
Субтитры: Английский

Видео: AVC/H.264, 1280х572, ~6500 Kbps, 23.976 fps
Аудио 1: AC3, 6 ch, 384 Kbps | Русский (HDRezka studio)
Аудио 2: AC3, 6 ch, 384 Kbps | Русский (NewStudio) Ненорматив!
Аудио 3: DTS, 6 ch, 1509 Kbps | Английский

h.264 log:

x264 [info]: frame I:1255 Avg QP:12.51 size:170108
x264 [info]: frame P:34845 Avg QP:15.08 size: 67834
x264 [info]: frame B:112949 Avg QP:17.27 size: 21904
x264 [info]: consecutive B-frames: 2.7% 3.6% 9.3% 25.9% 19.8% 29.9% 9.0%

Mediainfo:

[pr]
General
Complete name : \Бремя_Cargo (2017) BDRip.720p.torrents45.xyzv
Format : Matroska
Format version : Version 4 / Version 2
File size : 6.36 GiB
Duration : 1 h 44 min
Overall bit rate : 8 746 kb/s
Movie name : Бремя_Cargo (2017) BDRip.720p.torrents45.xyz />Encoded date : UTC 2018-09-06 04:59:33
Writing application : mkvmerge v26.0.0 ('In The Game') 64-bit
Writing library : libebml v1.3.6 + libmatroska v1.4.9

Video
ID : 1
Format : AVC
Format/Info : Advanced Video Codec
Format profile : High@L4.1
Format settings : CABAC / 11 Ref Frames
Format settings, CABAC : Yes
Format settings, ReFrames : 11 frames
Codec ID : V_MPEG4/ISO/AVC
Duration : 1 h 43 min
Bit rate : 6 500 kb/s
Width : 1 280 pixels
Height : 572 pixels
Display aspect ratio : 2.25:1
Frame rate mode : Constant
Frame rate : 23.976 (24000/1001) FPS
Color space : YUV
Chroma subsampling : 4:2:0
Bit depth : 8 bits
Scan type : Progressive
Bits/(Pixel*Frame) : 0.370
Stream size : 4.70 GiB (74%)
Title : Бремя_Cargo (2017) BDRip.720p.torrents45.xyz />Writing library : x264 core 155 r2901 7d0ff22
Encoding settings : cabac=1 / ref=11 / deblock=1:-3:-3 / analyse=0x3:0x133 / me=umh / subme=10 / psy=1 / psy_rd=1.00:0.00 / mixed_ref=1 / me_range=32 / chroma_me=1 / trellis=2 / 8x8dct=1 / cqm=0 / deadzone=21,11 / fast_pskip=0 / chroma_qp_offset=-2 / threads=12 / lookahead_threads=1 / sliced_threads=0 / nr=0 / decimate=1 / interlaced=0 / bluray_compat=0 / constrained_intra=0 / bframes=6 / b_pyramid=2 / b_adapt=2 / b_bias=0 / direct=3 / weightb=1 / open_gop=0 / weightp=2 / keyint=230 / keyint_min=22 / scenecut=40 / intra_refresh=0 / rc_lookahead=60 / rc=2pass / mbtree=1 / bitrate=6500 / ratetol=1.0 / qcomp=0.60 / qpmin=0 / qpmax=69 / qpstep=4 / cplxblur=20.0 / qblur=0.5 / vbv_maxrate=50000 / vbv_bufsize=50000 / nal_hrd=none / filler=0 / ip_ratio=1.40 / aq=1:1.00
Language : English
Default : Yes
Forced : No

Audio #1
ID : 2
Format : AC-3
Format/Info : Audio Coding 3
Codec ID : A_AC3
Duration : 1 h 44 min
Bit rate mode : Constant
Bit rate : 384 kb/s
Channel(s) : 6 channels
Channel positions : Front: L C R, Side: L R, LFE
Sampling rate : 48.0 kHz
Frame rate : 31.250 FPS (1536 SPF)
Bit depth : 16 bits
Compression mode : Lossy
Stream size : 286 MiB (4%)
Title : MVO HDRezka
Language : Russian
Service kind : Complete Main
Default : No
Forced : No

Audio #2
ID : 3
Format : AC-3
Format/Info : Audio Coding 3
Codec ID : A_AC3
Duration : 1 h 44 min
Bit rate mode : Constant
Bit rate : 384 kb/s
Channel(s) : 6 channels
Channel positions : Front: L C R, Side: L R, LFE
Sampling rate : 48.0 kHz
Frame rate : 31.250 FPS (1536 SPF)
Bit depth : 16 bits
Compression mode : Lossy
Stream size : 286 MiB (4%)
Title : MVO Русский NewStudio (ненорматив)
Language : Russian
Service kind : Complete Main
Default : No
Forced : No

Audio #3
ID : 4
Format : DTS
Format/Info : Digital Theater Systems
Codec ID : A_DTS
Duration : 1 h 43 min
Bit rate mode : Constant
Bit rate : 1 509 kb/s
Channel(s) : 6 channels
Channel positions : Front: L C R, Side: L R, LFE
Sampling rate : 48.0 kHz
Frame rate : 93.750 FPS (512 SPF)
Bit depth : 24 bits
Compression mode : Lossy
Stream size : 1.09 GiB (17%)
Language : English
Default : No
Forced : No

Text
ID : 5
Format : UTF-8
Codec ID : S_TEXT/UTF8
Codec ID/Info : UTF-8 Plain Text
Duration : 1 h 42 min
Bit rate : 34 b/s
Count of elements : 933
Stream size : 25.8 KiB (0%)
Title : SDH
Language : English
Default : No
Forced : No

Menu
00:00:00.000 : :00:00:00.000
00:00:42.334 : :00:00:42.334
00:06:33.101 : :00:06:33.101
00:16:29.739 : :00:16:29.739
00:26:01.977 : :00:26:01.977
00:31:49.616 : :00:31:49.616
00:43:30.233 : :00:43:30.233
00:54:46.825 : :00:54:46.825
01:05:59.581 : :01:05:59.581
01:12:16.123 : :01:12:16.123
01:20:56.143 : :01:20:56.143
01:26:07.454 : :01:26:07.454
01:38:25.525 : :01:38:25.525
[/pre]
Скриншоты:


Все одноименные релизы в Клубе

Смотреть Online

Детали торрента:
Название:Бремя / Cargo (2017) BDRip [H.264/720p] [MVO]
Дата добавления:06 Сен 2018 08:30:05
Размер:6,36 GB
Раздают:5
Качают:0
Форум:Новинки (HD, UHD, UHD-LQ)

All rights reserved © 2015-2019