TORRENTS45.XYZ

Скачать Песня года (лучшее 1983 - 1991) - Видеоколлекция от ALEXnROCK часть 2 WEBRip [H.264/720p-LQ]


Песня года (лучшее 1983 - 1991) - Видеоколлекция от ALEXnROCK часть 2 WEBRip
Жанр: Pop
Год выпуска: 2018

Описание:
В сборник вошли самые хитовые песни с выступлений Песня года, периода 1983 по 1991 г. В то время бездарям путь на эстраду был закрыт. Самые сильная поп музыка создавалась именно тогда. Это классика и достояние нашей великой Родины. Все видео прошло многочасовую обработку, звук CD. Это 2я часть. Обложка и блин для диска в раздаче. Да пребудет с нами качественная музыка!. Все лучшее для вас. ALEXnROCK

Продолжительность: 02:40:44
Качество: WEBRip

Видео: AVC/H.264, 1280x720 (16x9) 1280x944 (4x3) 5200 kbps
Аудио: PCM 2.0, 48 KHz, 1536 kbps

Треклист:
000. Вступление
038. Веселые ребята - Розовые розы
039. Ирина Аллегрова - Странник
040. Вячеслав Добрынин - Казино
041. Дмитрий Маликов - Сторона родная
042. Алла Пугачева - Расскажите птицы
043. Игорь Корнелюк – Дожди
044. Вячеслав Добрынин - Не сыпь мне соль на рану
045. София Ротару - Лаванда
046. Любэ - Станция Таганская
047. Маша Распутина - Играй музыкант
048. Александр Малинин – Пилигримы
049. Форум - Твои серые глаза

Продолжение треклиста:

050. Михаил Муромов - Яблоки на снегу
051. Валентина Толкунова - Не могу иначе
052. Олег Газманов - Морячка
053. Алла Пугачева - Старинные часы
054. На на - Эскимос и папуас
055. Юрий Антонов - Не рвите цветы
056. Валерий Леонтьев - Белый снег
057. Лариса Долина - Старый знакомы
058. Игорь Тальков - Чистые пруды
059. Андрей Державин - Первые цветы
060. Тамара Гвердцители - Виват король
061. Александр Барыкин - За той рекой
062. Женя Белоусов - Ночное такси
063. Алла Пугачева - Прости, поверь
064. Владимир Кузьмин - Капитан
065. Веселые ребята - Дама с собачкой
066. Лайма Вайкуле - Я за тебя молюсь
067. Игорь Корнелюк - Возвращайся
068. Сергей Беликов - Снится мне деревня
069. Алексей Глызин - Зимний сад
070. София Ротару - Золотое сердце
071. Маша Распутина и Вячеслав Добрынин - Льется музыка
072. Юрий Лоза - Пой, моя гитара
073. Ирина Понаровская - Я больше не хочу
074. Вячеслав Малежик - Провинциалка

Mediainfo:


Общее
Уникальный идентификатор : 251170547049773165450585104428835121044 (0xBCF5B011C4C66CD2ADD9F7BFCD21A794)
Полное имя : Песня года 83-91 - Лучшее от ALEXnROCK mkv 2\000 Вступление Песня года 2.mkv
Формат : Matroska
Версия формата : Version 4 / Version 2
Размер файла : 48,4 Мбайт
Продолжительность : 58 с. 900 мс.
Общий поток : 6890 Кбит/сек
Дата кодирования : UTC 2018-09-03 11:00:40
Программа кодирования : mkvmerge v9.8.0 ('Kuglblids') 64bit
Библиотека кодирования : libebml v1.3.4 + libmatroska v1.4.5

Видео
Идентификатор : 1
Формат : AVC
Формат/Информация : Advanced Video Codec
Профиль формата : High@L4
Настройки формата : CABAC / 4 Ref Frames
Параметр CABAC формата : Да
Параметр RefFrames формата : 4 кадра
Идентификатор кодека : V_MPEG4/ISO/AVC
Продолжительность : 58 с. 900 мс.
Битрейт : 5300 Кбит/сек
Ширина : 1280 пикселей
Высота : 720 пикселей
Соотношение сторон : 16:9
Режим частоты кадров : Постоянный
Частота кадров : 30,000 кадров/сек
Цветовое пространство : YUV
Субдискретизация насыщенности : 4:2:0
Битовая глубина : 8 бит
Тип развёртки : MBAFF
Метод сохранения типа развёртки : Чередующиеся поля
Порядок развёртки : Верхнее поле первое
Бит/(Пиксели*Кадры) : 0.085
Размер потока : 37,6 Мбайт (78%)
Библиотека кодирования : x264 core 146 r2538 121396c
Настройки программы : cabac=1 / ref=4 / deblock=1:-1:-1 / analyse=0x3:0x113 / me=umh / subme=7 / psy=1 / psy_rd=1.00:0.20 / mixed_ref=1 / me_range=16 / chroma_me=1 / trellis=2 / 8x8dct=1 / cqm=0 / deadzone=21,11 / fast_pskip=0 / chroma_qp_offset=-3 / threads=12 / lookahead_threads=2 / sliced_threads=0 / nr=0 / decimate=0 / interlaced=tff / bluray_compat=0 / constrained_intra=0 / bframes=3 / b_pyramid=2 / b_adapt=2 / b_bias=0 / direct=3 / weightb=1 / open_gop=0 / weightp=0 / keyint=250 / keyint_min=25 / scenecut=40 / intra_refresh=0 / rc_lookahead=50 / rc=2pass / mbtree=1 / bitrate=5300 / ratetol=1.0 / qcomp=0.60 / qpmin=0 / qpmax=69 / qpstep=4 / cplxblur=20.0 / qblur=0.5 / vbv_maxrate=50000 / vbv_bufsize=62500 / nal_hrd=none / filler=0 / ip_ratio=1.40 / aq=1:1.00
Default : Да
Forced : Нет

Аудио
Идентификатор : 2
Формат : PCM
Идентификатор кодека : A_PCM/INT/LIT
Продолжительность : 58 с. 633 мс.
Вид битрейта : Постоянный
Битрейт : 1536 Кбит/сек
Каналы : 2 канала
Частота : 48,0 КГц
Частота кадров : 32,013 кадра/сек (1499 SPF)
Битовая глубина : 16 бит
Размер потока : 10,7 Мбайт (22%)
Default : Да
Forced : Нет

Общее
Уникальный идентификатор : 252641951556241103635201609529344330249 (0xBE1111E99F93DC0CB0D1260374530A09)
Полное имя : D:\Фильмы\клипы\Песня года\Песня года 83-91 - Лучшее от ALEXnROCK mkv 2\038 Веселые ребята - Розовые розы.mkv
Формат : Matroska
Версия формата : Version 4 / Version 2
Размер файла : 227 Мбайт
Продолжительность : 4 м. 43 с.
Общий поток : 6737 Кбит/сек
Дата кодирования : UTC 2018-08-07 05:37:29
Программа кодирования : mkvmerge v9.8.0 ('Kuglblids') 64bit
Библиотека кодирования : libebml v1.3.4 + libmatroska v1.4.5

Видео
Идентификатор : 1
Формат : AVC
Формат/Информация : Advanced Video Codec
Профиль формата : High@L4
Настройки формата : CABAC / 4 Ref Frames
Параметр CABAC формата : Да
Параметр RefFrames формата : 4 кадра
Идентификатор кодека : V_MPEG4/ISO/AVC
Продолжительность : 4 м. 43 с.
Битрейт : 5200 Кбит/сек
Ширина : 1280 пикселей
Высота : 944 пикселя
Соотношение сторон : 4:3
Режим частоты кадров : Постоянный
Частота кадров : 25,000 кадров/сек
Цветовое пространство : YUV
Субдискретизация насыщенности : 4:2:0
Битовая глубина : 8 бит
Тип развёртки : Прогрессивная
Бит/(Пиксели*Кадры) : 0.172
Размер потока : 175 Мбайт (77%)
Библиотека кодирования : x264 core 146 r2538 121396c
Настройки программы : cabac=1 / ref=4 / deblock=1:-1:-1 / analyse=0x3:0x113 / me=umh / subme=7 / psy=1 / psy_rd=1.00:0.20 / mixed_ref=1 / me_range=16 / chroma_me=1 / trellis=2 / 8x8dct=1 / cqm=0 / deadzone=21,11 / fast_pskip=0 / chroma_qp_offset=-3 / threads=12 / lookahead_threads=2 / sliced_threads=0 / nr=0 / decimate=0 / interlaced=0 / bluray_compat=0 / constrained_intra=0 / bframes=3 / b_pyramid=2 / b_adapt=2 / b_bias=0 / direct=3 / weightb=1 / open_gop=0 / weightp=2 / keyint=250 / keyint_min=25 / scenecut=40 / intra_refresh=0 / rc_lookahead=50 / rc=2pass / mbtree=1 / bitrate=5200 / ratetol=1.0 / qcomp=0.60 / qpmin=0 / qpmax=69 / qpstep=4 / cplxblur=20.0 / qblur=0.5 / vbv_maxrate=50000 / vbv_bufsize=62500 / nal_hrd=none / filler=0 / ip_ratio=1.40 / aq=1:1.00
Default : Да
Forced : Нет

Аудио
Идентификатор : 2
Формат : PCM
Идентификатор кодека : A_PCM/INT/LIT
Продолжительность : 4 м. 42 с.
Вид битрейта : Постоянный
Битрейт : 1536 Кбит/сек
Каналы : 2 канала
Частота : 48,0 КГц
Частота кадров : 32,000 кадра/сек (1500 SPF)
Битовая глубина : 16 бит
Размер потока : 51,8 Мбайт (23%)
Default : Да
Forced : Нет

Общее
Уникальный идентификатор : 254446007057973306044540518653753020965 (0xBF6C84B7526E5CC8AEB5CBAF44DBD225)
Полное имя : D:\Фильмы\клипы\Песня года\Песня года 83-91 - Лучшее от ALEXnROCK mkv 2\039 Ирина Аллегрова - Странник.mkv
Формат : Matroska
Версия формата : Version 4 / Version 2
Размер файла : 152 Мбайт
Продолжительность : 3 м. 9 с.
Общий поток : 6729 Кбит/сек
Дата кодирования : UTC 2018-08-15 12:39:38
Программа кодирования : mkvmerge v9.8.0 ('Kuglblids') 64bit
Библиотека кодирования : libebml v1.3.4 + libmatroska v1.4.5

Видео
Идентификатор : 1
Формат : AVC
Формат/Информация : Advanced Video Codec
Профиль формата : High@L4
Настройки формата : CABAC / 4 Ref Frames
Параметр CABAC формата : Да
Параметр RefFrames формата : 4 кадра
Идентификатор кодека : V_MPEG4/ISO/AVC
Продолжительность : 3 м. 9 с.
Битрейт : 5200 Кбит/сек
Ширина : 1280 пикселей
Высота : 944 пикселя
Соотношение сторон : 4:3
Режим частоты кадров : Постоянный
Частота кадров : 25,000 кадров/сек
Цветовое пространство : YUV
Субдискретизация насыщенности : 4:2:0
Битовая глубина : 8 бит
Тип развёртки : Прогрессивная
Бит/(Пиксели*Кадры) : 0.172
Размер потока : 117 Мбайт (77%)
Библиотека кодирования : x264 core 146 r2538 121396c
Настройки программы : cabac=1 / ref=4 / deblock=1:-1:-1 / analyse=0x3:0x113 / me=umh / subme=7 / psy=1 / psy_rd=1.00:0.20 / mixed_ref=1 / me_range=16 / chroma_me=1 / trellis=2 / 8x8dct=1 / cqm=0 / deadzone=21,11 / fast_pskip=0 / chroma_qp_offset=-3 / threads=12 / lookahead_threads=2 / sliced_threads=0 / nr=0 / decimate=0 / interlaced=0 / bluray_compat=0 / constrained_intra=0 / bframes=3 / b_pyramid=2 / b_adapt=2 / b_bias=0 / direct=3 / weightb=1 / open_gop=0 / weightp=2 / keyint=250 / keyint_min=25 / scenecut=40 / intra_refresh=0 / rc_lookahead=50 / rc=2pass / mbtree=1 / bitrate=5200 / ratetol=1.0 / qcomp=0.60 / qpmin=0 / qpmax=69 / qpstep=4 / cplxblur=20.0 / qblur=0.5 / vbv_maxrate=50000 / vbv_bufsize=62500 / nal_hrd=none / filler=0 / ip_ratio=1.40 / aq=1:1.00
Default : Да
Forced : Нет

Аудио
Идентификатор : 2
Формат : PCM
Идентификатор кодека : A_PCM/INT/LIT
Продолжительность : 3 м. 9 с.
Вид битрейта : Постоянный
Битрейт : 1536 Кбит/сек
Каналы : 2 канала
Частота : 48,0 КГц
Частота кадров : 32,004 кадра/сек (1500 SPF)
Битовая глубина : 16 бит
Размер потока : 34,6 Мбайт (23%)
Default : Да
Forced : Нет

Общее
Уникальный идентификатор : 205075657996620537693558426163467416603 (0x9A4822934BCFC8DC9371E46BFE16741B)
Полное имя : D:\Фильмы\клипы\Песня года\Песня года 83-91 - Лучшее от ALEXnROCK mkv 2\040 Вячеслав Добрынин - Казино.mkv
Формат : Matroska
Версия формата : Version 4 / Version 2
Размер файла : 205 Мбайт
Продолжительность : 4 м. 15 с.
Общий поток : 6741 Кбит/сек
Дата кодирования : UTC 2018-08-11 17:00:03
Программа кодирования : mkvmerge v9.8.0 ('Kuglblids') 64bit
Библиотека кодирования : libebml v1.3.4 + libmatroska v1.4.5

Видео
Идентификатор : 1
Формат : AVC
Формат/Информация : Advanced Video Codec
Профиль формата : High@L4
Настройки формата : CABAC / 4 Ref Frames
Параметр CABAC формата : Да
Параметр RefFrames формата : 4 кадра
Идентификатор кодека : V_MPEG4/ISO/AVC
Продолжительность : 4 м. 15 с.
Битрейт : 5200 Кбит/сек
Ширина : 1280 пикселей
Высота : 944 пикселя
Соотношение сторон : 4:3
Режим частоты кадров : Постоянный
Частота кадров : 25,000 кадров/сек
Цветовое пространство : YUV
Субдискретизация насыщенности : 4:2:0
Битовая глубина : 8 бит
Тип развёртки : Прогрессивная
Бит/(Пиксели*Кадры) : 0.172
Размер потока : 159 Мбайт (77%)
Библиотека кодирования : x264 core 146 r2538 121396c
Настройки программы : cabac=1 / ref=4 / deblock=1:-1:-1 / analyse=0x3:0x113 / me=umh / subme=7 / psy=1 / psy_rd=1.00:0.20 / mixed_ref=1 / me_range=16 / chroma_me=1 / trellis=2 / 8x8dct=1 / cqm=0 / deadzone=21,11 / fast_pskip=0 / chroma_qp_offset=-3 / threads=12 / lookahead_threads=2 / sliced_threads=0 / nr=0 / decimate=0 / interlaced=0 / bluray_compat=0 / constrained_intra=0 / bframes=3 / b_pyramid=2 / b_adapt=2 / b_bias=0 / direct=3 / weightb=1 / open_gop=0 / weightp=2 / keyint=250 / keyint_min=25 / scenecut=40 / intra_refresh=0 / rc_lookahead=50 / rc=2pass / mbtree=1 / bitrate=5200 / ratetol=1.0 / qcomp=0.60 / qpmin=0 / qpmax=69 / qpstep=4 / cplxblur=20.0 / qblur=0.5 / vbv_maxrate=50000 / vbv_bufsize=62500 / nal_hrd=none / filler=0 / ip_ratio=1.40 / aq=1:1.00
Default : Да
Forced : Нет

Аудио
Идентификатор : 2
Формат : PCM
Идентификатор кодека : A_PCM/INT/LIT
Продолжительность : 4 м. 15 с.
Вид битрейта : Постоянный
Битрейт : 1536 Кбит/сек
Каналы : 2 канала
Частота : 48,0 КГц
Частота кадров : 32,000 кадра/сек (1500 SPF)
Битовая глубина : 16 бит
Размер потока : 46,8 Мбайт (23%)
Default : Да
Forced : Нет

Общее
Уникальный идентификатор : 179734218387621795339764622710074598651 (0x87378D237694A593992BE287867D64FB)
Полное имя : D:\Фильмы\клипы\Песня года\Песня года 83-91 - Лучшее от ALEXnROCK mkv 2\041 Дмитрий Маликов - Сторона родная.mkv
Формат : Matroska
Версия формата : Version 4 / Version 2
Размер файла : 188 Мбайт
Продолжительность : 3 м. 54 с.
Общий поток : 6732 Кбит/сек
Дата кодирования : UTC 2018-08-12 11:31:15
Программа кодирования : mkvmerge v9.8.0 ('Kuglblids') 64bit
Библиотека кодирования : libebml v1.3.4 + libmatroska v1.4.5

Видео
Идентификатор : 1
Формат : AVC
Формат/Информация : Advanced Video Codec
Профиль формата : High@L4
Настройки формата : CABAC / 4 Ref Frames
Параметр CABAC формата : Да
Параметр RefFrames формата : 4 кадра
Идентификатор кодека : V_MPEG4/ISO/AVC
Продолжительность : 3 м. 54 с.
Битрейт : 5200 Кбит/сек
Ширина : 1280 пикселей
Высота : 944 пикселя
Соотношение сторон : 4:3
Режим частоты кадров : Постоянный
Частота кадров : 25,000 кадров/сек
Цветовое пространство : YUV
Субдискретизация насыщенности : 4:2:0
Битовая глубина : 8 бит
Тип развёртки : Прогрессивная
Бит/(Пиксели*Кадры) : 0.172
Размер потока : 145 Мбайт (77%)
Библиотека кодирования : x264 core 146 r2538 121396c
Настройки программы : cabac=1 / ref=4 / deblock=1:-1:-1 / analyse=0x3:0x113 / me=umh / subme=7 / psy=1 / psy_rd=1.00:0.20 / mixed_ref=1 / me_range=16 / chroma_me=1 / trellis=2 / 8x8dct=1 / cqm=0 / deadzone=21,11 / fast_pskip=0 / chroma_qp_offset=-3 / threads=12 / lookahead_threads=2 / sliced_threads=0 / nr=0 / decimate=0 / interlaced=0 / bluray_compat=0 / constrained_intra=0 / bframes=3 / b_pyramid=2 / b_adapt=2 / b_bias=0 / direct=3 / weightb=1 / open_gop=0 / weightp=2 / keyint=250 / keyint_min=25 / scenecut=40 / intra_refresh=0 / rc_lookahead=50 / rc=2pass / mbtree=1 / bitrate=5200 / ratetol=1.0 / qcomp=0.60 / qpmin=0 / qpmax=69 / qpstep=4 / cplxblur=20.0 / qblur=0.5 / vbv_maxrate=50000 / vbv_bufsize=62500 / nal_hrd=none / filler=0 / ip_ratio=1.40 / aq=1:1.00
Default : Да
Forced : Нет

Аудио
Идентификатор : 2
Формат : PCM
Идентификатор кодека : A_PCM/INT/LIT
Продолжительность : 3 м. 54 с.
Вид битрейта : Постоянный
Битрейт : 1536 Кбит/сек
Каналы : 2 канала
Частота : 48,0 КГц
Частота кадров : 32,003 кадра/сек (1500 SPF)
Битовая глубина : 16 бит
Размер потока : 42,9 Мбайт (23%)
Default : Да
Forced : Нет

Общее
Уникальный идентификатор : 202877528689413917641601844073792862992 (0x98A0CA6EE519D9ACA973F1EACE1CFB10)
Полное имя : D:\Фильмы\клипы\Песня года\Песня года 83-91 - Лучшее от ALEXnROCK mkv 2\042 Алла Пугачева - Расскажите птицы.mkv
Формат : Matroska
Версия формата : Version 4 / Version 2
Размер файла : 307 Мбайт
Продолжительность : 6 м. 16 с.
Общий поток : 6840 Кбит/сек
Дата кодирования : UTC 2018-06-28 16:29:38
Программа кодирования : mkvmerge v9.8.0 ('Kuglblids') 64bit
Библиотека кодирования : libebml v1.3.4 + libmatroska v1.4.5

Видео
Идентификатор : 1
Формат : AVC
Формат/Информация : Advanced Video Codec
Профиль формата : High@L4
Настройки формата : CABAC / 4 Ref Frames
Параметр CABAC формата : Да
Параметр RefFrames формата : 4 кадра
Идентификатор кодека : V_MPEG4/ISO/AVC
Продолжительность : 6 м. 16 с.
Битрейт : 5300 Кбит/сек
Ширина : 1280 пикселей
Высота : 944 пикселя
Соотношение сторон : 4:3
Режим частоты кадров : Постоянный
Частота кадров : 25,000 кадров/сек
Цветовое пространство : YUV
Субдискретизация насыщенности : 4:2:0
Битовая глубина : 8 бит
Тип развёртки : Прогрессивная
Бит/(Пиксели*Кадры) : 0.175
Размер потока : 238 Мбайт (78%)
Библиотека кодирования : x264 core 146 r2538 121396c
Настройки программы : cabac=1 / ref=3 / deblock=1:-1:-1 / analyse=0x3:0x133 / me=umh / subme=7 / psy=1 / psy_rd=1.00:0.15 / mixed_ref=1 / me_range=16 / chroma_me=1 / trellis=2 / 8x8dct=1 / cqm=0 / deadzone=21,11 / fast_pskip=0 / chroma_qp_offset=-3 / threads=12 / lookahead_threads=2 / sliced_threads=0 / nr=0 / decimate=1 / interlaced=0 / bluray_compat=0 / constrained_intra=0 / bframes=3 / b_pyramid=2 / b_adapt=2 / b_bias=0 / direct=3 / weightb=1 / open_gop=0 / weightp=2 / keyint=250 / keyint_min=25 / scenecut=40 / intra_refresh=0 / rc_lookahead=50 / rc=2pass / mbtree=1 / bitrate=5300 / ratetol=1.0 / qcomp=0.60 / qpmin=0 / qpmax=69 / qpstep=4 / cplxblur=20.0 / qblur=0.5 / ip_ratio=1.40 / aq=1:1.00
Default : Да
Forced : Нет

Аудио
Идентификатор : 2
Формат : PCM
Идентификатор кодека : A_PCM/INT/LIT
Продолжительность : 6 м. 16 с.
Вид битрейта : Постоянный
Битрейт : 1536 Кбит/сек
Каналы : 2 канала
Частота : 48,0 КГц
Частота кадров : 32,003 кадра/сек (1500 SPF)
Битовая глубина : 16 бит
Размер потока : 68,9 Мбайт (22%)
Default : Да
Forced : Нет

Общее
Уникальный идентификатор : 204588354122494176796925748726064061048 (0x99EA48A3B1247A58AAB5E36D07419A78)
Полное имя : D:\Фильмы\клипы\Песня года\Песня года 83-91 - Лучшее от ALEXnROCK mkv 2\043 Игорь Корнелюк – Дожди.mkv
Формат : Matroska
Версия формата : Version 4 / Version 2
Размер файла : 200 Мбайт
Продолжительность : 4 м. 8 с.
Общий поток : 6738 Кбит/сек
Дата кодирования : UTC 2018-08-13 10:06:21
Программа кодирования : mkvmerge v9.8.0 ('Kuglblids') 64bit
Библиотека кодирования : libebml v1.3.4 + libmatroska v1.4.5

Видео
Идентификатор : 1
Формат : AVC
Формат/Информация : Advanced Video Codec
Профиль формата : High@L4
Настройки формата : CABAC / 4 Ref Frames
Параметр CABAC формата : Да
Параметр RefFrames формата : 4 кадра
Идентификатор кодека : V_MPEG4/ISO/AVC
Продолжительность : 4 м. 8 с.
Битрейт : 5200 Кбит/сек
Ширина : 1280 пикселей
Высота : 944 пикселя
Соотношение сторон : 4:3
Режим частоты кадров : Постоянный
Частота кадров : 25,000 кадров/сек
Цветовое пространство : YUV
Субдискретизация насыщенности : 4:2:0
Битовая глубина : 8 бит
Тип развёртки : Прогрессивная
Бит/(Пиксели*Кадры) : 0.172
Размер потока : 154 Мбайт (77%)
Библиотека кодирования : x264 core 146 r2538 121396c
Настройки программы : cabac=1 / ref=4 / deblock=1:-1:-1 / analyse=0x3:0x113 / me=umh / subme=7 / psy=1 / psy_rd=1.00:0.20 / mixed_ref=1 / me_range=16 / chroma_me=1 / trellis=2 / 8x8dct=1 / cqm=0 / deadzone=21,11 / fast_pskip=0 / chroma_qp_offset=-3 / threads=12 / lookahead_threads=2 / sliced_threads=0 / nr=0 / decimate=0 / interlaced=0 / bluray_compat=0 / constrained_intra=0 / bframes=3 / b_pyramid=2 / b_adapt=2 / b_bias=0 / direct=3 / weightb=1 / open_gop=0 / weightp=2 / keyint=250 / keyint_min=25 / scenecut=40 / intra_refresh=0 / rc_lookahead=50 / rc=2pass / mbtree=1 / bitrate=5200 / ratetol=1.0 / qcomp=0.60 / qpmin=0 / qpmax=69 / qpstep=4 / cplxblur=20.0 / qblur=0.5 / vbv_maxrate=50000 / vbv_bufsize=62500 / nal_hrd=none / filler=0 / ip_ratio=1.40 / aq=1:1.00
Default : Да
Forced : Нет

Аудио
Идентификатор : 2
Формат : PCM
Идентификатор кодека : A_PCM/INT/LIT
Продолжительность : 4 м. 8 с.
Вид битрейта : Постоянный
Битрейт : 1536 Кбит/сек
Каналы : 2 канала
Частота : 48,0 КГц
Частота кадров : 32,001 кадра/сек (1500 SPF)
Битовая глубина : 16 бит
Размер потока : 45,5 Мбайт (23%)
Default : Да
Forced : Нет

Общее
Уникальный идентификатор : 177646933402284279409502694997184633033 (0x85A58E0B186C6C4797FAB965FCB258C9)
Полное имя : D:\Фильмы\клипы\Песня года\Песня года 83-91 - Лучшее от ALEXnROCK mkv 2\044 Вячеслав Добрынин - Не сыпь мне соль на рану.mkv
Формат : Matroska
Версия формата : Version 4 / Version 2
Размер файла : 218 Мбайт
Продолжительность : 4 м. 30 с.
Общий поток : 6734 Кбит/сек
Дата кодирования : UTC 2018-08-11 12:52:27
Программа кодирования : mkvmerge v9.8.0 ('Kuglblids') 64bit
Библиотека кодирования : libebml v1.3.4 + libmatroska v1.4.5

Видео
Идентификатор : 1
Формат : AVC
Формат/Информация : Advanced Video Codec
Профиль формата : High@L4
Настройки формата : CABAC / 4 Ref Frames
Параметр CABAC формата : Да
Параметр RefFrames формата : 4 кадра
Идентификатор кодека : V_MPEG4/ISO/AVC
Продолжительность : 4 м. 30 с.
Битрейт : 5200 Кбит/сек
Ширина : 1280 пикселей
Высота : 944 пикселя
Соотношение сторон : 4:3
Режим частоты кадров : Постоянный
Частота кадров : 25,000 кадров/сек
Цветовое пространство : YUV
Субдискретизация насыщенности : 4:2:0
Битовая глубина : 8 бит
Тип развёртки : Прогрессивная
Бит/(Пиксели*Кадры) : 0.172
Размер потока : 168 Мбайт (77%)
Библиотека кодирования : x264 core 146 r2538 121396c
Настройки программы : cabac=1 / ref=4 / deblock=1:-1:-1 / analyse=0x3:0x113 / me=umh / subme=7 / psy=1 / psy_rd=1.00:0.20 / mixed_ref=1 / me_range=16 / chroma_me=1 / trellis=2 / 8x8dct=1 / cqm=0 / deadzone=21,11 / fast_pskip=0 / chroma_qp_offset=-3 / threads=12 / lookahead_threads=2 / sliced_threads=0 / nr=0 / decimate=0 / interlaced=0 / bluray_compat=0 / constrained_intra=0 / bframes=3 / b_pyramid=2 / b_adapt=2 / b_bias=0 / direct=3 / weightb=1 / open_gop=0 / weightp=2 / keyint=250 / keyint_min=25 / scenecut=40 / intra_refresh=0 / rc_lookahead=50 / rc=2pass / mbtree=1 / bitrate=5200 / ratetol=1.0 / qcomp=0.60 / qpmin=0 / qpmax=69 / qpstep=4 / cplxblur=20.0 / qblur=0.5 / vbv_maxrate=50000 / vbv_bufsize=62500 / nal_hrd=none / filler=0 / ip_ratio=1.40 / aq=1:1.00
Default : Да
Forced : Нет

Аудио
Идентификатор : 2
Формат : PCM
Идентификатор кодека : A_PCM/INT/LIT
Продолжительность : 4 м. 30 с.
Вид битрейта : Постоянный
Битрейт : 1536 Кбит/сек
Каналы : 2 канала
Частота : 48,0 КГц
Частота кадров : 32,002 кадра/сек (1500 SPF)
Битовая глубина : 16 бит
Размер потока : 49,6 Мбайт (23%)
Default : Да
Forced : Нет

Общее
Уникальный идентификатор : 182358448890332055152180380578861807814 (0x8930F5B10FACDBF79C19FE93DB2FF8C6)
Полное имя : D:\Фильмы\клипы\Песня года\Песня года 83-91 - Лучшее от ALEXnROCK mkv 2\045 София Ротару - Лаванда.mkv
Формат : Matroska
Версия формата : Version 4 / Version 2
Размер файла : 231 Мбайт
Продолжительность : 4 м. 43 с.
Общий поток : 6831 Кбит/сек
Дата кодирования : UTC 2018-08-19 09:13:24
Программа кодирования : mkvmerge v9.8.0 ('Kuglblids') 64bit
Библиотека кодирования : libebml v1.3.4 + libmatroska v1.4.5

Видео
Идентификатор : 1
Формат : AVC
Формат/Информация : Advanced Video Codec
Профиль формата : High@L4
Настройки формата : CABAC / 4 Ref Frames
Параметр CABAC формата : Да
Параметр RefFrames формата : 4 кадра
Идентификатор кодека : V_MPEG4/ISO/AVC
Продолжительность : 4 м. 43 с.
Битрейт : 5300 Кбит/сек
Ширина : 1440 пикселей
Высота : 1080 пикселей
Соотношение сторон : 4:3
Режим частоты кадров : Постоянный
Частота кадров : 30,000 кадров/сек
Цветовое пространство : YUV
Субдискретизация насыщенности : 4:2:0
Битовая глубина : 8 бит
Тип развёртки : Прогрессивная
Бит/(Пиксели*Кадры) : 0.114
Размер потока : 179 Мбайт (78%)
Библиотека кодирования : x264 core 146 r2538 121396c
Настройки программы : cabac=1 / ref=4 / deblock=1:-1:-1 / analyse=0x3:0x113 / me=umh / subme=7 / psy=1 / psy_rd=1.00:0.20 / mixed_ref=1 / me_range=16 / chroma_me=1 / trellis=2 / 8x8dct=1 / cqm=0 / deadzone=21,11 / fast_pskip=0 / chroma_qp_offset=-3 / threads=12 / lookahead_threads=2 / sliced_threads=0 / nr=0 / decimate=0 / interlaced=0 / bluray_compat=0 / constrained_intra=0 / bframes=3 / b_pyramid=2 / b_adapt=2 / b_bias=0 / direct=3 / weightb=1 / open_gop=0 / weightp=2 / keyint=250 / keyint_min=25 / scenecut=40 / intra_refresh=0 / rc_lookahead=50 / rc=2pass / mbtree=1 / bitrate=5300 / ratetol=1.0 / qcomp=0.60 / qpmin=0 / qpmax=69 / qpstep=4 / cplxblur=20.0 / qblur=0.5 / vbv_maxrate=50000 / vbv_bufsize=62500 / nal_hrd=none / filler=0 / ip_ratio=1.40 / aq=1:1.00
Default : Да
Forced : Нет

Аудио
Идентификатор : 2
Формат : PCM
Идентификатор кодека : A_PCM/INT/LIT
Продолжительность : 4 м. 43 с.
Вид битрейта : Постоянный
Битрейт : 1536 Кбит/сек
Каналы : 2 канала
Частота : 48,0 КГц
Частота кадров : 32,002 кадра/сек (1500 SPF)
Битовая глубина : 16 бит
Размер потока : 51,9 Мбайт (22%)
Default : Да
Forced : Нет

Общее
Уникальный идентификатор : 190331154818722787966858199609003358685 (0x8F307271501C42C4B0CB2CBA443E39DD)
Полное имя : D:\Фильмы\клипы\Песня года\Песня года 83-91 - Лучшее от ALEXnROCK mkv 2\046 Любэ - Станция Таганская.mkv
Формат : Matroska
Версия формата : Version 4 / Version 2
Размер файла : 168 Мбайт
Продолжительность : 3 м. 29 с.
Общий поток : 6740 Кбит/сек
Дата кодирования : UTC 2018-08-24 19:25:30
Программа кодирования : mkvmerge v9.8.0 ('Kuglblids') 64bit
Библиотека кодирования : libebml v1.3.4 + libmatroska v1.4.5

Видео
Идентификатор : 1
Формат : AVC
Формат/Информация : Advanced Video Codec
Профиль формата : High@L4
Настройки формата : CABAC / 4 Ref Frames
Параметр CABAC формата : Да
Параметр RefFrames формата : 4 кадра
Идентификатор кодека : V_MPEG4/ISO/AVC
Продолжительность : 3 м. 29 с.
Битрейт : 5200 Кбит/сек
Ширина : 1280 пикселей
Высота : 944 пикселя
Соотношение сторон : 4:3
Режим частоты кадров : Постоянный
Частота кадров : 25,000 кадров/сек
Цветовое пространство : YUV
Субдискретизация насыщенности : 4:2:0
Битовая глубина : 8 бит
Тип развёртки : Прогрессивная
Бит/(Пиксели*Кадры) : 0.172
Размер потока : 130 Мбайт (77%)
Библиотека кодирования : x264 core 146 r2538 121396c
Настройки программы : cabac=1 / ref=4 / deblock=1:-1:-1 / analyse=0x3:0x113 / me=umh / subme=7 / psy=1 / psy_rd=1.00:0.20 / mixed_ref=1 / me_range=16 / chroma_me=1 / trellis=2 / 8x8dct=1 / cqm=0 / deadzone=21,11 / fast_pskip=0 / chroma_qp_offset=-3 / threads=12 / lookahead_threads=2 / sliced_threads=0 / nr=0 / decimate=0 / interlaced=0 / bluray_compat=0 / constrained_intra=0 / bframes=3 / b_pyramid=2 / b_adapt=2 / b_bias=0 / direct=3 / weightb=1 / open_gop=0 / weightp=2 / keyint=250 / keyint_min=25 / scenecut=40 / intra_refresh=0 / rc_lookahead=50 / rc=2pass / mbtree=1 / bitrate=5200 / ratetol=1.0 / qcomp=0.60 / qpmin=0 / qpmax=69 / qpstep=4 / cplxblur=20.0 / qblur=0.5 / vbv_maxrate=50000 / vbv_bufsize=62500 / nal_hrd=none / filler=0 / ip_ratio=1.40 / aq=1:1.00
Default : Да
Forced : Нет

Аудио
Идентификатор : 2
Формат : PCM
Идентификатор кодека : A_PCM/INT/LIT
Продолжительность : 3 м. 29 с.
Вид битрейта : Постоянный
Битрейт : 1536 Кбит/сек
Каналы : 2 канала
Частота : 48,0 КГц
Частота кадров : 32,002 кадра/сек (1500 SPF)
Битовая глубина : 16 бит
Размер потока : 38,4 Мбайт (23%)
Default : Да
Forced : Нет

Общее
Уникальный идентификатор : 191191725501447801447861718013736930662 (0x8FD62FDA65BDEA298B5457B20A944D66)
Полное имя : D:\Фильмы\клипы\Песня года\Песня года 83-91 - Лучшее от ALEXnROCK mkv 2\047 Маша Распутина - Играй музыкант.mkv
Формат : Matroska
Версия формата : Version 4 / Version 2
Размер файла : 169 Мбайт
Продолжительность : 3 м. 27 с.
Общий поток : 6842 Кбит/сек
Дата кодирования : UTC 2018-08-26 13:43:19
Программа кодирования : mkvmerge v9.8.0 ('Kuglblids') 64bit
Библиотека кодирования : libebml v1.3.4 + libmatroska v1.4.5

Видео
Идентификатор : 1
Формат : AVC
Формат/Информация : Advanced Video Codec
Профиль формата : High@L4
Настройки формата : CABAC / 4 Ref Frames
Параметр CABAC формата : Да
Параметр RefFrames формата : 4 кадра
Идентификатор кодека : V_MPEG4/ISO/AVC
Продолжительность : 3 м. 27 с.
Битрейт : 5300 Кбит/сек
Ширина : 1440 пикселей
Высота : 1080 пикселей
Соотношение сторон : 4:3
Режим частоты кадров : Постоянный
Частота кадров : 30,000 кадров/сек
Цветовое пространство : YUV
Субдискретизация насыщенности : 4:2:0
Битовая глубина : 8 бит
Тип развёртки : Прогрессивная
Бит/(Пиксели*Кадры) : 0.114
Размер потока : 131 Мбайт (78%)
Библиотека кодирования : x264 core 146 r2538 121396c
Настройки программы : cabac=1 / ref=4 / deblock=1:-1:-1 / analyse=0x3:0x113 / me=umh / subme=7 / psy=1 / psy_rd=1.00:0.20 / mixed_ref=1 / me_range=16 / chroma_me=1 / trellis=2 / 8x8dct=1 / cqm=0 / deadzone=21,11 / fast_pskip=0 / chroma_qp_offset=-3 / threads=12 / lookahead_threads=2 / sliced_threads=0 / nr=0 / decimate=0 / interlaced=0 / bluray_compat=0 / constrained_intra=0 / bframes=3 / b_pyramid=2 / b_adapt=2 / b_bias=0 / direct=3 / weightb=1 / open_gop=0 / weightp=2 / keyint=250 / keyint_min=25 / scenecut=40 / intra_refresh=0 / rc_lookahead=50 / rc=2pass / mbtree=1 / bitrate=5300 / ratetol=1.0 / qcomp=0.60 / qpmin=0 / qpmax=69 / qpstep=4 / cplxblur=20.0 / qblur=0.5 / vbv_maxrate=50000 / vbv_bufsize=62500 / nal_hrd=none / filler=0 / ip_ratio=1.40 / aq=1:1.00
Default : Да
Forced : Нет

Аудио
Идентификатор : 2
Формат : PCM
Идентификатор кодека : A_PCM/INT/LIT
Продолжительность : 3 м. 27 с.
Вид битрейта : Постоянный
Битрейт : 1536 Кбит/сек
Каналы : 2 канала
Частота : 48,0 КГц
Частота кадров : 32,002 кадра/сек (1500 SPF)
Битовая глубина : 16 бит
Размер потока : 38,0 Мбайт (22%)
Default : Да
Forced : Нет

Общее
Уникальный идентификатор : 199358495927129562383115929326772218396 (0x95FB0CB8F81D4DE58B084DEDE82AEA1C)
Полное имя : D:\Фильмы\клипы\Песня года\Песня года 83-91 - Лучшее от ALEXnROCK mkv 2\048 Александр Малинин – Пилигримы.mkv
Формат : Matroska
Версия формата : Version 4 / Version 2
Размер файла : 286 Мбайт
Продолжительность : 5 м. 55 с.
Общий поток : 6741 Кбит/сек
Дата кодирования : UTC 2018-08-08 05:17:12
Программа кодирования : mkvmerge v9.8.0 ('Kuglblids') 64bit
Библиотека кодирования : libebml v1.3.4 + libmatroska v1.4.5

Видео
Идентификатор : 1
Формат : AVC
Формат/Информация : Advanced Video Codec
Профиль формата : High@L4
Настройки формата : CABAC / 4 Ref Frames
Параметр CABAC формата : Да
Параметр RefFrames формата : 4 кадра
Идентификатор кодека : V_MPEG4/ISO/AVC
Продолжительность : 5 м. 55 с.
Битрейт : 5200 Кбит/сек
Ширина : 1280 пикселей
Высота : 944 пикселя
Соотношение сторон : 4:3
Режим частоты кадров : Постоянный
Частота кадров : 25,000 кадров/сек
Цветовое пространство : YUV
Субдискретизация насыщенности : 4:2:0
Битовая глубина : 8 бит
Тип развёртки : Прогрессивная
Бит/(Пиксели*Кадры) : 0.172
Размер потока : 221 Мбайт (77%)
Библиотека кодирования : x264 core 146 r2538 121396c
Настройки программы : cabac=1 / ref=4 / deblock=1:-1:-1 / analyse=0x3:0x113 / me=umh / subme=7 / psy=1 / psy_rd=1.00:0.20 / mixed_ref=1 / me_range=16 / chroma_me=1 / trellis=2 / 8x8dct=1 / cqm=0 / deadzone=21,11 / fast_pskip=0 / chroma_qp_offset=-3 / threads=12 / lookahead_threads=2 / sliced_threads=0 / nr=0 / decimate=0 / interlaced=0 / bluray_compat=0 / constrained_intra=0 / bframes=3 / b_pyramid=2 / b_adapt=2 / b_bias=0 / direct=3 / weightb=1 / open_gop=0 / weightp=2 / keyint=250 / keyint_min=25 / scenecut=40 / intra_refresh=0 / rc_lookahead=50 / rc=2pass / mbtree=1 / bitrate=5200 / ratetol=1.0 / qcomp=0.60 / qpmin=0 / qpmax=69 / qpstep=4 / cplxblur=20.0 / qblur=0.5 / vbv_maxrate=50000 / vbv_bufsize=62500 / nal_hrd=none / filler=0 / ip_ratio=1.40 / aq=1:1.00
Default : Да
Forced : Нет

Аудио
Идентификатор : 2
Формат : PCM
Идентификатор кодека : A_PCM/INT/LIT
Продолжительность : 5 м. 55 с.
Вид битрейта : Постоянный
Битрейт : 1536 Кбит/сек
Каналы : 2 канала
Частота : 48,0 КГц
Частота кадров : 32,002 кадра/сек (1500 SPF)
Битовая глубина : 16 бит
Размер потока : 65,1 Мбайт (23%)
Default : Да
Forced : Нет

Общее
Уникальный идентификатор : 235344034512963390797298943469981846076 (0xB10D9CC1AB0DF1989BAFE632F544CA3C)
Полное имя : D:\Фильмы\клипы\Песня года\Песня года 83-91 - Лучшее от ALEXnROCK mkv 2\049 Форум - Твои серые глаза.mkv
Формат : Matroska
Версия формата : Version 4 / Version 2
Размер файла : 163 Мбайт
Продолжительность : 3 м. 23 с.
Общий поток : 6737 Кбит/сек
Дата кодирования : UTC 2018-08-21 09:50:38
Программа кодирования : mkvmerge v9.8.0 ('Kuglblids') 64bit
Библиотека кодирования : libebml v1.3.4 + libmatroska v1.4.5

Видео
Идентификатор : 1
Формат : AVC
Формат/Информация : Advanced Video Codec
Профиль формата : High@L4
Настройки формата : CABAC / 4 Ref Frames
Параметр CABAC формата : Да
Параметр RefFrames формата : 4 кадра
Идентификатор кодека : V_MPEG4/ISO/AVC
Продолжительность : 3 м. 23 с.
Битрейт : 5200 Кбит/сек
Ширина : 1280 пикселей
Высота : 944 пикселя
Соотношение сторон : 4:3
Режим частоты кадров : Постоянный
Частота кадров : 25,000 кадров/сек
Цветовое пространство : YUV
Субдискретизация насыщенности : 4:2:0
Битовая глубина : 8 бит
Тип развёртки : Прогрессивная
Бит/(Пиксели*Кадры) : 0.172
Размер потока : 126 Мбайт (77%)
Библиотека кодирования : x264 core 146 r2538 121396c
Настройки программы : cabac=1 / ref=4 / deblock=1:-1:-1 / analyse=0x3:0x113 / me=umh / subme=7 / psy=1 / psy_rd=1.00:0.20 / mixed_ref=1 / me_range=16 / chroma_me=1 / trellis=2 / 8x8dct=1 / cqm=0 / deadzone=21,11 / fast_pskip=0 / chroma_qp_offset=-3 / threads=12 / lookahead_threads=2 / sliced_threads=0 / nr=0 / decimate=0 / interlaced=0 / bluray_compat=0 / constrained_intra=0 / bframes=3 / b_pyramid=2 / b_adapt=2 / b_bias=0 / direct=3 / weightb=1 / open_gop=0 / weightp=2 / keyint=250 / keyint_min=25 / scenecut=40 / intra_refresh=0 / rc_lookahead=50 / rc=2pass / mbtree=1 / bitrate=5200 / ratetol=1.0 / qcomp=0.60 / qpmin=0 / qpmax=69 / qpstep=4 / cplxblur=20.0 / qblur=0.5 / vbv_maxrate=50000 / vbv_bufsize=62500 / nal_hrd=none / filler=0 / ip_ratio=1.40 / aq=1:1.00
Default : Да
Forced : Нет

Аудио
Идентификатор : 2
Формат : PCM
Идентификатор кодека : A_PCM/INT/LIT
Продолжительность : 3 м. 22 с.
Вид битрейта : Постоянный
Битрейт : 1536 Кбит/сек
Каналы : 2 канала
Частота : 48,0 КГц
Частота кадров : 32,004 кадра/сек (1500 SPF)
Битовая глубина : 16 бит
Размер потока : 37,2 Мбайт (23%)
Default : Да
Forced : Нет

Общее
Уникальный идентификатор : 214587355504080888130771367772877682555 (0xA170057830DFF19DB63925CE1956F77B)
Полное имя : D:\Фильмы\клипы\Песня года\Песня года 83-91 - Лучшее от ALEXnROCK mkv 2\050 Михаил Муромов - Яблоки на снегу.mkv
Формат : Matroska
Версия формата : Version 4 / Version 2
Размер файла : 208 Мбайт
Продолжительность : 4 м. 18 с.
Общий поток : 6738 Кбит/сек
Дата кодирования : UTC 2018-08-24 13:52:02
Программа кодирования : mkvmerge v9.8.0 ('Kuglblids') 64bit
Библиотека кодирования : libebml v1.3.4 + libmatroska v1.4.5

Видео
Идентификатор : 1
Формат : AVC
Формат/Информация : Advanced Video Codec
Профиль формата : High@L4
Настройки формата : CABAC / 4 Ref Frames
Параметр CABAC формата : Да
Параметр RefFrames формата : 4 кадра
Идентификатор кодека : V_MPEG4/ISO/AVC
Продолжительность : 4 м. 18 с.
Битрейт : 5200 Кбит/сек
Ширина : 1280 пикселей
Высота : 944 пикселя
Соотношение сторон : 4:3
Режим частоты кадров : Постоянный
Частота кадров : 25,000 кадров/сек
Цветовое пространство : YUV
Субдискретизация насыщенности : 4:2:0
Битовая глубина : 8 бит
Тип развёртки : Прогрессивная
Бит/(Пиксели*Кадры) : 0.172
Размер потока : 160 Мбайт (77%)
Библиотека кодирования : x264 core 146 r2538 121396c
Настройки программы : cabac=1 / ref=4 / deblock=1:-1:-1 / analyse=0x3:0x113 / me=umh / subme=7 / psy=1 / psy_rd=1.00:0.20 / mixed_ref=1 / me_range=16 / chroma_me=1 / trellis=2 / 8x8dct=1 / cqm=0 / deadzone=21,11 / fast_pskip=0 / chroma_qp_offset=-3 / threads=12 / lookahead_threads=2 / sliced_threads=0 / nr=0 / decimate=0 / interlaced=0 / bluray_compat=0 / constrained_intra=0 / bframes=3 / b_pyramid=2 / b_adapt=2 / b_bias=0 / direct=3 / weightb=1 / open_gop=0 / weightp=2 / keyint=250 / keyint_min=25 / scenecut=40 / intra_refresh=0 / rc_lookahead=50 / rc=2pass / mbtree=1 / bitrate=5200 / ratetol=1.0 / qcomp=0.60 / qpmin=0 / qpmax=69 / qpstep=4 / cplxblur=20.0 / qblur=0.5 / vbv_maxrate=50000 / vbv_bufsize=62500 / nal_hrd=none / filler=0 / ip_ratio=1.40 / aq=1:1.00
Default : Да
Forced : Нет

Аудио
Идентификатор : 2
Формат : PCM
Идентификатор кодека : A_PCM/INT/LIT
Продолжительность : 4 м. 18 с.
Вид битрейта : Постоянный
Битрейт : 1536 Кбит/сек
Каналы : 2 канала
Частота : 48,0 КГц
Частота кадров : 32,001 кадра/сек (1500 SPF)
Битовая глубина : 16 бит
Размер потока : 47,4 Мбайт (23%)
Default : Да
Forced : Нет

Общее
Уникальный идентификатор : 203381388576369366232889294070955358055 (0x9901D4A4C2668EBA9E7D8E1CFC87B767)
Полное имя : D:\Фильмы\клипы\Песня года\Песня года 83-91 - Лучшее от ALEXnROCK mkv 2\051 Валентина Толкунова - Не могу иначе.mkv
Формат : Matroska
Версия формата : Version 4 / Version 2
Размер файла : 189 Мбайт
Продолжительность : 4 м. 2 с.
Общий поток : 6540 Кбит/сек
Дата кодирования : UTC 2018-08-10 06:56:30
Программа кодирования : mkvmerge v9.8.0 ('Kuglblids') 64bit
Библиотека кодирования : libebml v1.3.4 + libmatroska v1.4.5

Видео
Идентификатор : 1
Формат : AVC
Формат/Информация : Advanced Video Codec
Профиль формата : High@L4
Настройки формата : CABAC / 4 Ref Frames
Параметр CABAC формата : Да
Параметр RefFrames формата : 4 кадра
Идентификатор кодека : V_MPEG4/ISO/AVC
Продолжительность : 4 м. 2 с.
Битрейт : 5000 Кбит/сек
Ширина : 1280 пикселей
Высота : 944 пикселя
Соотношение сторон : 4:3
Режим частоты кадров : Постоянный
Частота кадров : 25,000 кадров/сек
Цветовое пространство : YUV
Субдискретизация насыщенности : 4:2:0
Битовая глубина : 8 бит
Тип развёртки : Прогрессивная
Бит/(Пиксели*Кадры) : 0.166
Размер потока : 144 Мбайт (77%)
Библиотека кодирования : x264 core 146 r2538 121396c
Настройки программы : cabac=1 / ref=4 / deblock=1:-1:-1 / analyse=0x3:0x113 / me=umh / subme=7 / psy=1 / psy_rd=1.00:0.20 / mixed_ref=1 / me_range=16 / chroma_me=1 / trellis=2 / 8x8dct=1 / cqm=0 / deadzone=21,11 / fast_pskip=0 / chroma_qp_offset=-3 / threads=12 / lookahead_threads=2 / sliced_threads=0 / nr=0 / decimate=0 / interlaced=0 / bluray_compat=0 / constrained_intra=0 / bframes=3 / b_pyramid=2 / b_adapt=2 / b_bias=0 / direct=3 / weightb=1 / open_gop=0 / weightp=2 / keyint=250 / keyint_min=25 / scenecut=40 / intra_refresh=0 / rc_lookahead=50 / rc=2pass / mbtree=1 / bitrate=5000 / ratetol=1.0 / qcomp=0.60 / qpmin=0 / qpmax=69 / qpstep=4 / cplxblur=20.0 / qblur=0.5 / vbv_maxrate=50000 / vbv_bufsize=62500 / nal_hrd=none / filler=0 / ip_ratio=1.40 / aq=1:1.00
Default : Да
Forced : Нет

Аудио
Идентификатор : 2
Формат : PCM
Идентификатор кодека : A_PCM/INT/LIT
Продолжительность : 4 м. 1 с.
Вид битрейта : Постоянный
Битрейт : 1536 Кбит/сек
Каналы : 2 канала
Частота : 48,0 КГц
Частота кадров : 32,000 кадра/сек (1500 SPF)
Битовая глубина : 16 бит
Размер потока : 44,3 Мбайт (23%)
Default : Да
Forced : Нет

Общее
Уникальный идентификатор : 216580237674103380584267107261731729199 (0xA2EFD625836127FA8EFA7E2BD5126F2F)
Полное имя : D:\Фильмы\клипы\Песня года\Песня года 83-91 - Лучшее от ALEXnROCK mkv 2\052 Олег Газманов - Морячка.mkv
Формат : Matroska
Версия формата : Version 4 / Version 2
Размер файла : 182 Мбайт
Продолжительность : 3 м. 46 с.
Общий поток : 6729 Кбит/сек
Дата кодирования : UTC 2018-08-23 13:25:07
Программа кодирования : mkvmerge v9.8.0 ('Kuglblids') 64bit
Библиотека кодирования : libebml v1.3.4 + libmatroska v1.4.5

Видео
Идентификатор : 1
Формат : AVC
Формат/Информация : Advanced Video Codec
Профиль формата : High@L4
Настройки формата : CABAC / 4 Ref Frames
Параметр CABAC формата : Да
Параметр RefFrames формата : 4 кадра
Идентификатор кодека : V_MPEG4/ISO/AVC
Продолжительность : 3 м. 46 с.
Битрейт : 5200 Кбит/сек
Ширина : 1280 пикселей
Высота : 944 пикселя
Соотношение сторон : 4:3
Режим частоты кадров : Постоянный
Частота кадров : 25,000 кадров/сек
Цветовое пространство : YUV
Субдискретизация насыщенности : 4:2:0
Битовая глубина : 8 бит
Тип развёртки : Прогрессивная
Бит/(Пиксели*Кадры) : 0.172
Размер потока : 140 Мбайт (77%)
Библиотека кодирования : x264 core 146 r2538 121396c
Настройки программы : cabac=1 / ref=4 / deblock=1:-1:-1 / analyse=0x3:0x113 / me=umh / subme=7 / psy=1 / psy_rd=1.00:0.20 / mixed_ref=1 / me_range=16 / chroma_me=1 / trellis=2 / 8x8dct=1 / cqm=0 / deadzone=21,11 / fast_pskip=0 / chroma_qp_offset=-3 / threads=12 / lookahead_threads=2 / sliced_threads=0 / nr=0 / decimate=0 / interlaced=0 / bluray_compat=0 / constrained_intra=0 / bframes=3 / b_pyramid=2 / b_adapt=2 / b_bias=0 / direct=3 / weightb=1 / open_gop=0 / weightp=2 / keyint=250 / keyint_min=25 / scenecut=40 / intra_refresh=0 / rc_lookahead=50 / rc=2pass / mbtree=1 / bitrate=5200 / ratetol=1.0 / qcomp=0.60 / qpmin=0 / qpmax=69 / qpstep=4 / cplxblur=20.0 / qblur=0.5 / vbv_maxrate=50000 / vbv_bufsize=62500 / nal_hrd=none / filler=0 / ip_ratio=1.40 / aq=1:1.00
Default : Да
Forced : Нет

Аудио
Идентификатор : 2
Формат : PCM
Идентификатор кодека : A_PCM/INT/LIT
Продолжительность : 3 м. 46 с.
Вид битрейта : Постоянный
Битрейт : 1536 Кбит/сек
Каналы : 2 канала
Частота : 48,0 КГц
Частота кадров : 32,001 кадра/сек (1500 SPF)
Битовая глубина : 16 бит
Размер потока : 41,6 Мбайт (23%)
Default : Да
Forced : Нет

Общее
Уникальный идентификатор : 225750564604202295730929395418948969590 (0xA9D5FA2BF717E710B1BE0B29E1DC2476)
Полное имя : D:\Фильмы\клипы\Песня года\Песня года 83-91 - Лучшее от ALEXnROCK mkv 2\053 Алла Пугачева - Старинные часы.mkv
Формат : Matroska
Версия формата : Version 4 / Version 2
Размер файла : 219 Мбайт
Продолжительность : 4 м. 28 с.
Общий поток : 6839 Кбит/сек
Дата кодирования : UTC 2018-06-07 12:07:51
Программа кодирования : mkvmerge v9.8.0 ('Kuglblids') 64bit
Библиотека кодирования : libebml v1.3.4 + libmatroska v1.4.5

Видео
Идентификатор : 1
Формат : AVC
Формат/Информация : Advanced Video Codec
Профиль формата : High@L4
Настройки формата : CABAC / 4 Ref Frames
Параметр CABAC формата : Да
Параметр RefFrames формата : 4 кадра
Идентификатор кодека : V_MPEG4/ISO/AVC
Продолжительность : 4 м. 28 с.
Битрейт : 5300 Кбит/сек
Ширина : 1280 пикселей
Высота : 944 пикселя
Соотношение сторон : 4:3
Режим частоты кадров : Постоянный
Частота кадров : 25,000 кадров/сек
Цветовое пространство : YUV
Субдискретизация насыщенности : 4:2:0
Битовая глубина : 8 бит
Тип развёртки : Прогрессивная
Бит/(Пиксели*Кадры) : 0.175
Размер потока : 169 Мбайт (78%)
Библиотека кодирования : x264 core 146 r2538 121396c
Настройки программы : cabac=1 / ref=3 / deblock=1:-1:-1 / analyse=0x3:0x133 / me=umh / subme=7 / psy=1 / psy_rd=1.00:0.15 / mixed_ref=1 / me_range=16 / chroma_me=1 / trellis=2 / 8x8dct=1 / cqm=0 / deadzone=21,11 / fast_pskip=0 / chroma_qp_offset=-3 / threads=12 / lookahead_threads=2 / sliced_threads=0 / nr=0 / decimate=1 / interlaced=0 / bluray_compat=0 / constrained_intra=0 / bframes=3 / b_pyramid=2 / b_adapt=2 / b_bias=0 / direct=3 / weightb=1 / open_gop=0 / weightp=2 / keyint=250 / keyint_min=25 / scenecut=40 / intra_refresh=0 / rc_lookahead=50 / rc=2pass / mbtree=1 / bitrate=5300 / ratetol=1.0 / qcomp=0.60 / qpmin=0 / qpmax=69 / qpstep=4 / cplxblur=20.0 / qblur=0.5 / ip_ratio=1.40 / aq=1:1.00
Default : Да
Forced : Нет

Аудио
Идентификатор : 2
Формат : PCM
Идентификатор кодека : A_PCM/INT/LIT
Продолжительность : 4 м. 27 с.
Вид битрейта : Постоянный
Битрейт : 1536 Кбит/сек
Каналы : 2 канала
Частота : 48,0 КГц
Частота кадров : 32,002 кадра/сек (1500 SPF)
Битовая глубина : 16 бит
Размер потока : 49,1 Мбайт (22%)
Default : Да
Forced : Нет

Общее
Уникальный идентификатор : 201205587493162329044732738851357969246 (0x975EC95E2A85D1C2B1B2E6A3AF21CB5E)
Полное имя : D:\Фильмы\клипы\Песня года\Песня года 83-91 - Лучшее от ALEXnROCK mkv 2\054 На на - Эскимос и папуас.mkv
Формат : Matroska
Версия формата : Version 4 / Version 2
Размер файла : 228 Мбайт
Продолжительность : 4 м. 43 с.
Общий поток : 6742 Кбит/сек
Дата кодирования : UTC 2018-08-24 10:35:12
Программа кодирования : mkvmerge v9.8.0 ('Kuglblids') 64bit
Библиотека кодирования : libebml v1.3.4 + libmatroska v1.4.5

Видео
Идентификатор : 1
Формат : AVC
Формат/Информация : Advanced Video Codec
Профиль формата : High@L4
Настройки формата : CABAC / 4 Ref Frames
Параметр CABAC формата : Да
Параметр RefFrames формата : 4 кадра
Идентификатор кодека : V_MPEG4/ISO/AVC
Продолжительность : 4 м. 43 с.
Битрейт : 5200 Кбит/сек
Ширина : 1280 пикселей
Высота : 944 пикселя
Соотношение сторон : 4:3
Режим частоты кадров : Постоянный
Частота кадров : 25,000 кадров/сек
Цветовое пространство : YUV
Субдискретизация насыщенности : 4:2:0
Битовая глубина : 8 бит
Тип развёртки : Прогрессивная
Бит/(Пиксели*Кадры) : 0.172
Размер потока : 176 Мбайт (77%)
Библиотека кодирования : x264 core 146 r2538 121396c
Настройки программы : cabac=1 / ref=4 / deblock=1:-1:-1 / analyse=0x3:0x113 / me=umh / subme=7 / psy=1 / psy_rd=1.00:0.20 / mixed_ref=1 / me_range=16 / chroma_me=1 / trellis=2 / 8x8dct=1 / cqm=0 / deadzone=21,11 / fast_pskip=0 / chroma_qp_offset=-3 / threads=12 / lookahead_threads=2 / sliced_threads=0 / nr=0 / decimate=0 / interlaced=0 / bluray_compat=0 / constrained_intra=0 / bframes=3 / b_pyramid=2 / b_adapt=2 / b_bias=0 / direct=3 / weightb=1 / open_gop=0 / weightp=2 / keyint=250 / keyint_min=25 / scenecut=40 / intra_refresh=0 / rc_lookahead=50 / rc=2pass / mbtree=1 / bitrate=5200 / ratetol=1.0 / qcomp=0.60 / qpmin=0 / qpmax=69 / qpstep=4 / cplxblur=20.0 / qblur=0.5 / vbv_maxrate=50000 / vbv_bufsize=62500 / nal_hrd=none / filler=0 / ip_ratio=1.40 / aq=1:1.00
Default : Да
Forced : Нет

Аудио
Идентификатор : 2
Формат : PCM
Идентификатор кодека : A_PCM/INT/LIT
Продолжительность : 4 м. 43 с.
Вид битрейта : Постоянный
Битрейт : 1536 Кбит/сек
Каналы : 2 канала
Частота : 48,0 КГц
Частота кадров : 32,002 кадра/сек (1500 SPF)
Битовая глубина : 16 бит
Размер потока : 52,0 Мбайт (23%)
Default : Да
Forced : Нет

Общее
Уникальный идентификатор : 206434272016037779544081333884820704758 (0x9B4DCB6B0F3478428827BC7BAB50CDF6)
Полное имя : D:\Фильмы\клипы\Песня года\Песня года 83-91 - Лучшее от ALEXnROCK mkv 2\055 Юрий Антонов - Не рвите цветы.mkv
Формат : Matroska
Версия формата : Version 4 / Version 2
Размер файла : 163 Мбайт
Продолжительность : 3 м. 22 с.
Общий поток : 6735 Кбит/сек
Дата кодирования : UTC 2018-08-07 03:16:12
Программа кодирования : mkvmerge v9.8.0 ('Kuglblids') 64bit
Библиотека кодирования : libebml v1.3.4 + libmatroska v1.4.5

Видео
Идентификатор : 1
Формат : AVC
Формат/Информация : Advanced Video Codec
Профиль формата : High@L4
Настройки формата : CABAC / 4 Ref Frames
Параметр CABAC формата : Да
Параметр RefFrames формата : 4 кадра
Идентификатор кодека : V_MPEG4/ISO/AVC
Продолжительность : 3 м. 22 с.
Битрейт : 5200 Кбит/сек
Ширина : 1280 пикселей
Высота : 944 пикселя
Соотношение сторон : 4:3
Режим частоты кадров : Постоянный
Частота кадров : 25,000 кадров/сек
Цветовое пространство : YUV
Субдискретизация насыщенности : 4:2:0
Битовая глубина : 8 бит
Тип развёртки : Прогрессивная
Бит/(Пиксели*Кадры) : 0.172
Размер потока : 126 Мбайт (77%)
Библиотека кодирования : x264 core 146 r2538 121396c
Настройки программы : cabac=1 / ref=4 / deblock=1:-1:-1 / analyse=0x3:0x113 / me=umh / subme=7 / psy=1 / psy_rd=1.00:0.20 / mixed_ref=1 / me_range=16 / chroma_me=1 / trellis=2 / 8x8dct=1 / cqm=0 / deadzone=21,11 / fast_pskip=0 / chroma_qp_offset=-3 / threads=12 / lookahead_threads=2 / sliced_threads=0 / nr=0 / decimate=0 / interlaced=0 / bluray_compat=0 / constrained_intra=0 / bframes=3 / b_pyramid=2 / b_adapt=2 / b_bias=0 / direct=3 / weightb=1 / open_gop=0 / weightp=2 / keyint=250 / keyint_min=25 / scenecut=40 / intra_refresh=0 / rc_lookahead=50 / rc=2pass / mbtree=1 / bitrate=5200 / ratetol=1.0 / qcomp=0.60 / qpmin=0 / qpmax=69 / qpstep=4 / cplxblur=20.0 / qblur=0.5 / vbv_maxrate=50000 / vbv_bufsize=62500 / nal_hrd=none / filler=0 / ip_ratio=1.40 / aq=1:1.00
Default : Да
Forced : Нет

Аудио
Идентификатор : 2
Формат : PCM
Идентификатор кодека : A_PCM/INT/LIT
Продолжительность : 3 м. 22 с.
Вид битрейта : Постоянный
Битрейт : 1536 Кбит/сек
Каналы : 2 канала
Частота : 48,0 КГц
Частота кадров : 32,001 кадра/сек (1500 SPF)
Битовая глубина : 16 бит
Размер потока : 37,1 Мбайт (23%)
Default : Да
Forced : Нет

Общее
Уникальный идентификатор : 180739550124318646567013050331038531816 (0x87F92BD1ECC88C1CB23CFD7E5DFCC0E8)
Полное имя : D:\Фильмы\клипы\Песня года\Песня года 83-91 - Лучшее от ALEXnROCK mkv 2\056 Валерий Леонтьев - Белый снег.mkv
Формат : Matroska
Версия формата : Version 4 / Version 2
Размер файла : 173 Мбайт
Продолжительность : 3 м. 36 с.
Общий поток : 6693 Кбит/сек
Дата кодирования : UTC 2018-08-11 02:20:00
Программа кодирования : mkvmerge v9.8.0 ('Kuglblids') 64bit
Библиотека кодирования : libebml v1.3.4 + libmatroska v1.4.5

Видео
Идентификатор : 1
Формат : AVC
Формат/Информация : Advanced Video Codec
Профиль формата : High@L4
Настройки формата : CABAC / 4 Ref Frames
Параметр CABAC формата : Да
Параметр RefFrames формата : 4 кадра
Идентификатор кодека : V_MPEG4/ISO/AVC
Продолжительность : 3 м. 34 с.
Битрейт : 5200 Кбит/сек
Ширина : 1280 пикселей
Высота : 944 пикселя
Соотношение сторон : 4:3
Режим частоты кадров : Постоянный
Частота кадров : 25,000 кадров/сек
Цветовое пространство : YUV
Субдискретизация насыщенности : 4:2:0
Битовая глубина : 8 бит
Тип развёртки : Прогрессивная
Бит/(Пиксели*Кадры) : 0.172
Размер потока : 133 Мбайт (77%)
Библиотека кодирования : x264 core 146 r2538 121396c
Настройки программы : cabac=1 / ref=4 / deblock=1:-1:-1 / analyse=0x3:0x113 / me=umh / subme=7 / psy=1 / psy_rd=1.00:0.20 / mixed_ref=1 / me_range=16 / chroma_me=1 / trellis=2 / 8x8dct=1 / cqm=0 / deadzone=21,11 / fast_pskip=0 / chroma_qp_offset=-3 / threads=12 / lookahead_threads=2 / sliced_threads=0 / nr=0 / decimate=0 / interlaced=0 / bluray_compat=0 / constrained_intra=0 / bframes=3 / b_pyramid=2 / b_adapt=2 / b_bias=0 / direct=3 / weightb=1 / open_gop=0 / weightp=2 / keyint=250 / keyint_min=25 / scenecut=40 / intra_refresh=0 / rc_lookahead=50 / rc=2pass / mbtree=1 / bitrate=5200 / ratetol=1.0 / qcomp=0.60 / qpmin=0 / qpmax=69 / qpstep=4 / cplxblur=20.0 / qblur=0.5 / vbv_maxrate=50000 / vbv_bufsize=62500 / nal_hrd=none / filler=0 / ip_ratio=1.40 / aq=1:1.00
Default : Да
Forced : Нет

Аудио
Идентификатор : 2
Формат : PCM
Идентификатор кодека : A_PCM/INT/LIT
Продолжительность : 3 м. 36 с.
Вид битрейта : Постоянный
Битрейт : 1536 Кбит/сек
Каналы : 2 канала
Частота : 48,0 КГц
Частота кадров : 32,002 кадра/сек (1500 SPF)
Битовая глубина : 16 бит
Размер потока : 39,6 Мбайт (23%)
Default : Да
Forced : Нет

Общее
Уникальный идентификатор : 236775566807242980694545747845778413674 (0xB22150BF73D593738428A1D74426986A)
Полное имя : D:\Фильмы\клипы\Песня года\Песня года 83-91 - Лучшее от ALEXnROCK mkv 2\057 Лариса Долина - Старый знакомы.mkv
Формат : Matroska
Версия формата : Version 4 / Version 2
Размер файла : 192 Мбайт
Продолжительность : 3 м. 58 с.
Общий поток : 6738 Кбит/сек
Дата кодирования : UTC 2018-08-28 14:28:39
Программа кодирования : mkvmerge v9.8.0 ('Kuglblids') 64bit
Библиотека кодирования : libebml v1.3.4 + libmatroska v1.4.5

Видео
Идентификатор : 1
Формат : AVC
Формат/Информация : Advanced Video Codec
Профиль формата : High@L4
Настройки формата : CABAC / 4 Ref Frames
Параметр CABAC формата : Да
Параметр RefFrames формата : 4 кадра
Идентификатор кодека : V_MPEG4/ISO/AVC
Продолжительность : 3 м. 58 с.
Битрейт : 5200 Кбит/сек
Ширина : 1280 пикселей
Высота : 944 пикселя
Соотношение сторон : 4:3
Режим частоты кадров : Постоянный
Частота кадров : 25,000 кадров/сек
Цветовое пространство : YUV
Субдискретизация насыщенности : 4:2:0
Битовая глубина : 8 бит
Тип развёртки : Прогрессивная
Бит/(Пиксели*Кадры) : 0.172
Размер потока : 148 Мбайт (77%)
Библиотека кодирования : x264 core 146 r2538 121396c
Настройки программы : cabac=1 / ref=4 / deblock=1:-1:-1 / analyse=0x3:0x113 / me=umh / subme=7 / psy=1 / psy_rd=1.00:0.20 / mixed_ref=1 / me_range=16 / chroma_me=1 / trellis=2 / 8x8dct=1 / cqm=0 / deadzone=21,11 / fast_pskip=0 / chroma_qp_offset=-3 / threads=12 / lookahead_threads=2 / sliced_threads=0 / nr=0 / decimate=0 / interlaced=0 / bluray_compat=0 / constrained_intra=0 / bframes=3 / b_pyramid=2 / b_adapt=2 / b_bias=0 / direct=3 / weightb=1 / open_gop=0 / weightp=2 / keyint=250 / keyint_min=25 / scenecut=40 / intra_refresh=0 / rc_lookahead=50 / rc=2pass / mbtree=1 / bitrate=5200 / ratetol=1.0 / qcomp=0.60 / qpmin=0 / qpmax=69 / qpstep=4 / cplxblur=20.0 / qblur=0.5 / vbv_maxrate=50000 / vbv_bufsize=62500 / nal_hrd=none / filler=0 / ip_ratio=1.40 / aq=1:1.00
Default : Да
Forced : Нет

Аудио
Идентификатор : 2
Формат : PCM
Идентификатор кодека : A_PCM/INT/LIT
Продолжительность : 3 м. 58 с.
Вид битрейта : Постоянный
Битрейт : 1536 Кбит/сек
Каналы : 2 канала
Частота : 48,0 КГц
Частота кадров : 32,002 кадра/сек (1500 SPF)
Битовая глубина : 16 бит
Размер потока : 43,7 Мбайт (23%)
Default : Да
Forced : Нет

Общее
Уникальный идентификатор : 186473745351662518894275171773490487229 (0x8C498978EDD57FD984C628D6D8155FBD)
Полное имя : D:\Фильмы\клипы\Песня года\Песня года 83-91 - Лучшее от ALEXnROCK mkv 2\058 Игорь Тальков - Чистые пруды.mkv
Формат : Matroska
Версия формата : Version 4 / Version 2
Размер файла : 269 Мбайт
Продолжительность : 5 м. 36 с.
Общий поток : 6723 Кбит/сек
Дата кодирования : UTC 2018-08-14 14:13:57
Программа кодирования : mkvmerge v9.8.0 ('Kuglblids') 64bit
Библиотека кодирования : libebml v1.3.4 + libmatroska v1.4.5

Видео
Идентификатор : 1
Формат : AVC
Формат/Информация : Advanced Video Codec
Профиль формата : High@L4
Настройки формата : CABAC / 4 Ref Frames
Параметр CABAC формата : Да
Параметр RefFrames формата : 4 кадра
Идентификатор кодека : V_MPEG4/ISO/AVC
Продолжительность : 5 м. 35 с.
Битрейт : 5200 Кбит/сек
Ширина : 1280 пикселей
Высота : 936 пикселей
Соотношение сторон : 4:3
Режим частоты кадров : Постоянный
Частота кадров : 25,000 кадров/сек
Цветовое пространство : YUV
Субдискретизация насыщенности : 4:2:0
Битовая глубина : 8 бит
Тип развёртки : Прогрессивная
Бит/(Пиксели*Кадры) : 0.174
Размер потока : 208 Мбайт (77%)
Библиотека кодирования : x264 core 146 r2538 121396c
Настройки программы : cabac=1 / ref=4 / deblock=1:-1:-1 / analyse=0x3:0x113 / me=umh / subme=7 / psy=1 / psy_rd=1.00:0.20 / mixed_ref=1 / me_range=16 / chroma_me=1 / trellis=2 / 8x8dct=1 / cqm=0 / deadzone=21,11 / fast_pskip=0 / chroma_qp_offset=-3 / threads=12 / lookahead_threads=2 / sliced_threads=0 / nr=0 / decimate=0 / interlaced=0 / bluray_compat=0 / constrained_intra=0 / bframes=3 / b_pyramid=2 / b_adapt=2 / b_bias=0 / direct=3 / weightb=1 / open_gop=0 / weightp=2 / keyint=250 / keyint_min=25 / scenecut=40 / intra_refresh=0 / rc_lookahead=50 / rc=2pass / mbtree=1 / bitrate=5200 / ratetol=1.0 / qcomp=0.60 / qpmin=0 / qpmax=69 / qpstep=4 / cplxblur=20.0 / qblur=0.5 / vbv_maxrate=50000 / vbv_bufsize=62500 / nal_hrd=none / filler=0 / ip_ratio=1.40 / aq=1:1.00
Default : Да
Forced : Нет

Аудио
Идентификатор : 2
Формат : PCM
Идентификатор кодека : A_PCM/INT/LIT
Продолжительность : 5 м. 36 с.
Вид битрейта : Постоянный
Битрейт : 1536 Кбит/сек
Каналы : 2 канала
Частота : 48,0 КГц
Частота кадров : 32,003 кадра/сек (1500 SPF)
Битовая глубина : 16 бит
Размер потока : 61,6 Мбайт (23%)
Default : Да
Forced : Нет

Общее
Уникальный идентификатор : 237477139531799602032090750483990631933 (0xB2A86EF42A66D18E804D8C798134D5FD)
Полное имя : D:\Фильмы\клипы\Песня года\Песня года 83-91 - Лучшее от ALEXnROCK mkv 2\059 Андрей Державин - Первые цветы.mkv
Формат : Matroska
Версия формата : Version 4 / Version 2
Размер файла : 218 Мбайт
Продолжительность : 4 м. 31 с.
Общий поток : 6728 Кбит/сек
Дата кодирования : UTC 2018-08-08 16:28:22
Программа кодирования : mkvmerge v9.8.0 ('Kuglblids') 64bit
Библиотека кодирования : libebml v1.3.4 + libmatroska v1.4.5

Видео
Идентификатор : 1
Формат : AVC
Формат/Информация : Advanced Video Codec
Профиль формата : High@L4
Настройки формата : CABAC / 4 Ref Frames
Параметр CABAC формата : Да
Параметр RefFrames формата : 4 кадра
Идентификатор кодека : V_MPEG4/ISO/AVC
Продолжительность : 4 м. 31 с.
Битрейт : 5200 Кбит/сек
Ширина : 1280 пикселей
Высота : 944 пикселя
Соотношение сторон : 4:3
Режим частоты кадров : Постоянный
Частота кадров : 25,000 кадров/сек
Цветовое пространство : YUV
Субдискретизация насыщенности : 4:2:0
Битовая глубина : 8 бит
Тип развёртки : Прогрессивная
Бит/(Пиксели*Кадры) : 0.172
Размер потока : 168 Мбайт (77%)
Библиотека кодирования : x264 core 146 r2538 121396c
Настройки программы : cabac=1 / ref=4 / deblock=1:-1:-1 / analyse=0x3:0x113 / me=umh / subme=7 / psy=1 / psy_rd=1.00:0.20 / mixed_ref=1 / me_range=16 / chroma_me=1 / trellis=2 / 8x8dct=1 / cqm=0 / deadzone=21,11 / fast_pskip=0 / chroma_qp_offset=-3 / threads=12 / lookahead_threads=2 / sliced_threads=0 / nr=0 / decimate=0 / interlaced=0 / bluray_compat=0 / constrained_intra=0 / bframes=3 / b_pyramid=2 / b_adapt=2 / b_bias=0 / direct=3 / weightb=1 / open_gop=0 / weightp=2 / keyint=250 / keyint_min=25 / scenecut=40 / intra_refresh=0 / rc_lookahead=50 / rc=2pass / mbtree=1 / bitrate=5200 / ratetol=1.0 / qcomp=0.60 / qpmin=0 / qpmax=69 / qpstep=4 / cplxblur=20.0 / qblur=0.5 / vbv_maxrate=50000 / vbv_bufsize=62500 / nal_hrd=none / filler=0 / ip_ratio=1.40 / aq=1:1.00
Default : Да
Forced : Нет

Аудио
Идентификатор : 2
Формат : PCM
Идентификатор кодека : A_PCM/INT/LIT
Продолжительность : 4 м. 31 с.
Вид битрейта : Постоянный
Битрейт : 1536 Кбит/сек
Каналы : 2 канала
Частота : 48,0 КГц
Частота кадров : 32,002 кадра/сек (1500 SPF)
Битовая глубина : 16 бит
Размер потока : 49,7 Мбайт (23%)
Default : Да
Forced : Нет

Общее
Уникальный идентификатор : 253829589070930973615127028422972914382 (0xBEF5CCF6807FFB4B97529C655509BACE)
Полное имя : D:\Фильмы\клипы\Песня года\Песня года 83-91 - Лучшее от ALEXnROCK mkv 2\060 Тамара Гвердцители - Виват король.mkv
Формат : Matroska
Версия формата : Version 4 / Version 2
Размер файла : 230 Мбайт
Продолжительность : 4 м. 46 с.
Общий поток : 6740 Кбит/сек
Дата кодирования : UTC 2018-08-23 05:59:14
Программа кодирования : mkvmerge v9.8.0 ('Kuglblids') 64bit
Библиотека кодирования : libebml v1.3.4 + libmatroska v1.4.5

Видео
Идентификатор : 1
Формат : AVC
Формат/Информация : Advanced Video Codec
Профиль формата : High@L4
Настройки формата : CABAC / 4 Ref Frames
Параметр CABAC формата : Да
Параметр RefFrames формата : 4 кадра
Идентификатор кодека : V_MPEG4/ISO/AVC
Продолжительность : 4 м. 46 с.
Битрейт : 5200 Кбит/сек
Ширина : 1280 пикселей
Высота : 944 пикселя
Соотношение сторон : 4:3
Режим частоты кадров : Постоянный
Частота кадров : 25,000 кадров/сек
Цветовое пространство : YUV
Субдискретизация насыщенности : 4:2:0
Битовая глубина : 8 бит
Тип развёртки : Прогрессивная
Бит/(Пиксели*Кадры) : 0.172
Размер потока : 178 Мбайт (77%)
Библиотека кодирования : x264 core 146 r2538 121396c
Настройки программы : cabac=1 / ref=4 / deblock=1:-1:-1 / analyse=0x3:0x113 / me=umh / subme=7 / psy=1 / psy_rd=1.00:0.20 / mixed_ref=1 / me_range=16 / chroma_me=1 / trellis=2 / 8x8dct=1 / cqm=0 / deadzone=21,11 / fast_pskip=0 / chroma_qp_offset=-3 / threads=12 / lookahead_threads=2 / sliced_threads=0 / nr=0 / decimate=0 / interlaced=0 / bluray_compat=0 / constrained_intra=0 / bframes=3 / b_pyramid=2 / b_adapt=2 / b_bias=0 / direct=3 / weightb=1 / open_gop=0 / weightp=2 / keyint=250 / keyint_min=25 / scenecut=40 / intra_refresh=0 / rc_lookahead=50 / rc=2pass / mbtree=1 / bitrate=5200 / ratetol=1.0 / qcomp=0.60 / qpmin=0 / qpmax=69 / qpstep=4 / cplxblur=20.0 / qblur=0.5 / vbv_maxrate=50000 / vbv_bufsize=62500 / nal_hrd=none / filler=0 / ip_ratio=1.40 / aq=1:1.00
Default : Да
Forced : Нет

Аудио
Идентификатор : 2
Формат : PCM
Идентификатор кодека : A_PCM/INT/LIT
Продолжительность : 4 м. 46 с.
Вид битрейта : Постоянный
Битрейт : 1536 Кбит/сек
Каналы : 2 канала
Частота : 48,0 КГц
Частота кадров : 32,003 кадра/сек (1500 SPF)
Битовая глубина : 16 бит
Размер потока : 52,4 Мбайт (23%)
Default : Да
Forced : Нет

Общее
Уникальный идентификатор : 177227214956762858433465395034299014549 (0x8554B853878A359A8A234DDEC2039D95)
Полное имя : D:\Фильмы\клипы\Песня года\Песня года 83-91 - Лучшее от ALEXnROCK mkv 2\061 Александр Барыкин - За той рекой.mkv
Формат : Matroska
Версия формата : Version 4 / Version 2
Размер файла : 151 Мбайт
Продолжительность : 3 м. 8 с.
Общий поток : 6733 Кбит/сек
Дата кодирования : UTC 2018-08-07 11:43:39
Программа кодирования : mkvmerge v9.8.0 ('Kuglblids') 64bit
Библиотека кодирования : libebml v1.3.4 + libmatroska v1.4.5

Видео
Идентификатор : 1
Формат : AVC
Формат/Информация : Advanced Video Codec
Профиль формата : High@L4
Настройки формата : CABAC / 4 Ref Frames
Параметр CABAC формата : Да
Параметр RefFrames формата : 4 кадра
Идентификатор кодека : V_MPEG4/ISO/AVC
Продолжительность : 3 м. 8 с.
Битрейт : 5200 Кбит/сек
Ширина : 1280 пикселей
Высота : 944 пикселя
Соотношение сторон : 4:3
Режим частоты кадров : Постоянный
Частота кадров : 25,000 кадров/сек
Цветовое пространство : YUV
Субдискретизация насыщенности : 4:2:0
Битовая глубина : 8 бит
Тип развёртки : Прогрессивная
Бит/(Пиксели*Кадры) : 0.172
Размер потока : 117 Мбайт (77%)
Библиотека кодирования : x264 core 146 r2538 121396c
Настройки программы : cabac=1 / ref=4 / deblock=1:-1:-1 / analyse=0x3:0x113 / me=umh / subme=7 / psy=1 / psy_rd=1.00:0.20 / mixed_ref=1 / me_range=16 / chroma_me=1 / trellis=2 / 8x8dct=1 / cqm=0 / deadzone=21,11 / fast_pskip=0 / chroma_qp_offset=-3 / threads=12 / lookahead_threads=2 / sliced_threads=0 / nr=0 / decimate=0 / interlaced=0 / bluray_compat=0 / constrained_intra=0 / bframes=3 / b_pyramid=2 / b_adapt=2 / b_bias=0 / direct=3 / weightb=1 / open_gop=0 / weightp=2 / keyint=250 / keyint_min=25 / scenecut=40 / intra_refresh=0 / rc_lookahead=50 / rc=2pass / mbtree=1 / bitrate=5200 / ratetol=1.0 / qcomp=0.60 / qpmin=0 / qpmax=69 / qpstep=4 / cplxblur=20.0 / qblur=0.5 / vbv_maxrate=50000 / vbv_bufsize=62500 / nal_hrd=none / filler=0 / ip_ratio=1.40 / aq=1:1.00
Default : Да
Forced : Нет

Аудио
Идентификатор : 2
Формат : PCM
Идентификатор кодека : A_PCM/INT/LIT
Продолжительность : 3 м. 8 с.
Вид битрейта : Постоянный
Битрейт : 1536 Кбит/сек
Каналы : 2 канала
Частота : 48,0 КГц
Частота кадров : 32,001 кадра/сек (1500 SPF)
Битовая глубина : 16 бит
Размер потока : 34,5 Мбайт (23%)
Default : Да
Forced : Нет

Общее
Уникальный идентификатор : 178856395917426124176807028951438776016 (0x868E7D263533612F86E56482D236D6D0)
Полное имя : D:\Фильмы\клипы\Песня года\Песня года 83-91 - Лучшее от ALEXnROCK mkv 2\062 Женя Белоусов - Ночное такси.mkv
Формат : Matroska
Версия формата : Version 4 / Version 2
Размер файла : 230 Мбайт
Продолжительность : 4 м. 46 с.
Общий поток : 6735 Кбит/сек
Дата кодирования : UTC 2018-08-13 03:40:09
Программа кодирования : mkvmerge v9.8.0 ('Kuglblids') 64bit
Библиотека кодирования : libebml v1.3.4 + libmatroska v1.4.5

Видео
Идентификатор : 1
Формат : AVC
Формат/Информация : Advanced Video Codec
Профиль формата : High@L4
Настройки формата : CABAC / 4 Ref Frames
Параметр CABAC формата : Да
Параметр RefFrames формата : 4 кадра
Идентификатор кодека : V_MPEG4/ISO/AVC
Продолжительность : 4 м. 46 с.
Битрейт : 5200 Кбит/сек
Ширина : 1280 пикселей
Высота : 944 пикселя
Соотношение сторон : 4:3
Режим частоты кадров : Постоянный
Частота кадров : 25,000 кадров/сек
Цветовое пространство : YUV
Субдискретизация насыщенности : 4:2:0
Битовая глубина : 8 бит
Тип развёртки : Прогрессивная
Бит/(Пиксели*Кадры) : 0.172
Размер потока : 177 Мбайт (77%)
Библиотека кодирования : x264 core 146 r2538 121396c
Настройки программы : cabac=1 / ref=4 / deblock=1:-1:-1 / analyse=0x3:0x113 / me=umh / subme=7 / psy=1 / psy_rd=1.00:0.20 / mixed_ref=1 / me_range=16 / chroma_me=1 / trellis=2 / 8x8dct=1 / cqm=0 / deadzone=21,11 / fast_pskip=0 / chroma_qp_offset=-3 / threads=12 / lookahead_threads=2 / sliced_threads=0 / nr=0 / decimate=0 / interlaced=0 / bluray_compat=0 / constrained_intra=0 / bframes=3 / b_pyramid=2 / b_adapt=2 / b_bias=0 / direct=3 / weightb=1 / open_gop=0 / weightp=2 / keyint=250 / keyint_min=25 / scenecut=40 / intra_refresh=0 / rc_lookahead=50 / rc=2pass / mbtree=1 / bitrate=5200 / ratetol=1.0 / qcomp=0.60 / qpmin=0 / qpmax=69 / qpstep=4 / cplxblur=20.0 / qblur=0.5 / vbv_maxrate=50000 / vbv_bufsize=62500 / nal_hrd=none / filler=0 / ip_ratio=1.40 / aq=1:1.00
Default : Да
Forced : Нет

Аудио
Идентификатор : 2
Формат : PCM
Идентификатор кодека : A_PCM/INT/LIT
Продолжительность : 4 м. 46 с.
Вид битрейта : Постоянный
Битрейт : 1536 Кбит/сек
Каналы : 2 канала
Частота : 48,0 КГц
Частота кадров : 32,001 кадра/сек (1500 SPF)
Битовая глубина : 16 бит
Размер потока : 52,4 Мбайт (23%)
Default : Да
Forced : Нет

Общее
Уникальный идентификатор : 186162123282291877641801458828532497854 (0x8C0D855172027346BFECD3F7074BBDBE)
Полное имя : D:\Фильмы\клипы\Песня года\Песня года 83-91 - Лучшее от ALEXnROCK mkv 2\063 Алла Пугачева - Прости, поверь.mkv
Формат : Matroska
Версия формата : Version 4 / Version 2
Размер файла : 187 Мбайт
Продолжительность : 3 м. 49 с.
Общий поток : 6827 Кбит/сек
Дата кодирования : UTC 2018-06-21 14:52:13
Программа кодирования : mkvmerge v9.8.0 ('Kuglblids') 64bit
Библиотека кодирования : libebml v1.3.4 + libmatroska v1.4.5

Видео
Идентификатор : 1
Формат : AVC
Формат/Информация : Advanced Video Codec
Профиль формата : High@L4
Настройки формата : CABAC / 4 Ref Frames
Параметр CABAC формата : Да
Параметр RefFrames формата : 4 кадра
Идентификатор кодека : V_MPEG4/ISO/AVC
Продолжительность : 3 м. 49 с.
Битрейт : 5300 Кбит/сек
Ширина : 1280 пикселей
Высота : 944 пикселя
Соотношение сторон : 4:3
Режим частоты кадров : Постоянный
Частота кадров : 25,000 кадров/сек
Цветовое пространство : YUV
Субдискретизация насыщенности : 4:2:0
Битовая глубина : 8 бит
Тип развёртки : Прогрессивная
Бит/(Пиксели*Кадры) : 0.175
Размер потока : 145 Мбайт (77%)
Библиотека кодирования : x264 core 146 r2538 121396c
Настройки программы : cabac=1 / ref=3 / deblock=1:-1:-1 / analyse=0x3:0x133 / me=umh / subme=7 / psy=1 / psy_rd=1.00:0.15 / mixed_ref=1 / me_range=16 / chroma_me=1 / trellis=2 / 8x8dct=1 / cqm=0 / deadzone=21,11 / fast_pskip=0 / chroma_qp_offset=-3 / threads=12 / lookahead_threads=2 / sliced_threads=0 / nr=0 / decimate=1 / interlaced=0 / bluray_compat=0 / constrained_intra=0 / bframes=3 / b_pyramid=2 / b_adapt=2 / b_bias=0 / direct=3 / weightb=1 / open_gop=0 / weightp=2 / keyint=250 / keyint_min=25 / scenecut=40 / intra_refresh=0 / rc_lookahead=50 / rc=2pass / mbtree=1 / bitrate=5300 / ratetol=1.0 / qcomp=0.60 / qpmin=0 / qpmax=69 / qpstep=4 / cplxblur=20.0 / qblur=0.5 / ip_ratio=1.40 / aq=1:1.00
Default : Да
Forced : Нет

Аудио
Идентификатор : 2
Формат : PCM
Идентификатор кодека : A_PCM/INT/LIT
Продолжительность : 3 м. 49 с.
Вид битрейта : Постоянный
Битрейт : 1536 Кбит/сек
Каналы : 2 канала
Частота : 48,0 КГц
Частота кадров : 32,004 кадра/сек (1500 SPF)
Битовая глубина : 16 бит
Размер потока : 42,0 Мбайт (22%)
Default : Да
Forced : Нет

Общее
Уникальный идентификатор : 217095343469859430180519915751539944230 (0xA3530AD2B3D04291AB63685EB9BB2B26)
Полное имя : D:\Фильмы\клипы\Песня года\Песня года 83-91 - Лучшее от ALEXnROCK mkv 2\064 Владимир Кузьмин - Капитан.mkv
Формат : Matroska
Версия формата : Version 4 / Version 2
Размер файла : 222 Мбайт
Продолжительность : 4 м. 37 с.
Общий поток : 6720 Кбит/сек
Дата кодирования : UTC 2018-08-11 04:11:47
Программа кодирования : mkvmerge v9.8.0 ('Kuglblids') 64bit
Библиотека кодирования : libebml v1.3.4 + libmatroska v1.4.5

Видео
Идентификатор : 1
Формат : AVC
Формат/Информация : Advanced Video Codec
Профиль формата : High@L4
Настройки формата : CABAC / 4 Ref Frames
Параметр CABAC формата : Да
Параметр RefFrames формата : 4 кадра
Идентификатор кодека : V_MPEG4/ISO/AVC
Продолжительность : 4 м. 36 с.
Битрейт : 5200 Кбит/сек
Ширина : 1280 пикселей
Высота : 936 пикселей
Соотношение сторон : 4:3
Режим частоты кадров : Постоянный
Частота кадров : 25,000 кадров/сек
Цветовое пространство : YUV
Субдискретизация насыщенности : 4:2:0
Битовая глубина : 8 бит
Тип развёртки : Прогрессивная
Бит/(Пиксели*Кадры) : 0.174
Размер потока : 171 Мбайт (77%)
Библиотека кодирования : x264 core 146 r2538 121396c
Настройки программы : cabac=1 / ref=4 / deblock=1:-1:-1 / analyse=0x3:0x113 / me=umh / subme=7 / psy=1 / psy_rd=1.00:0.20 / mixed_ref=1 / me_range=16 / chroma_me=1 / trellis=2 / 8x8dct=1 / cqm=0 / deadzone=21,11 / fast_pskip=0 / chroma_qp_offset=-3 / threads=12 / lookahead_threads=2 / sliced_threads=0 / nr=0 / decimate=0 / interlaced=0 / bluray_compat=0 / constrained_intra=0 / bframes=3 / b_pyramid=2 / b_adapt=2 / b_bias=0 / direct=3 / weightb=1 / open_gop=0 / weightp=2 / keyint=250 / keyint_min=25 / scenecut=40 / intra_refresh=0 / rc_lookahead=50 / rc=2pass / mbtree=1 / bitrate=5200 / ratetol=1.0 / qcomp=0.60 / qpmin=0 / qpmax=69 / qpstep=4 / cplxblur=20.0 / qblur=0.5 / vbv_maxrate=50000 / vbv_bufsize=62500 / nal_hrd=none / filler=0 / ip_ratio=1.40 / aq=1:1.00
Default : Да
Forced : Нет

Аудио
Идентификатор : 2
Формат : PCM
Идентификатор кодека : A_PCM/INT/LIT
Продолжительность : 4 м. 37 с.
Вид битрейта : Постоянный
Битрейт : 1536 Кбит/сек
Каналы : 2 канала
Частота : 48,0 КГц
Частота кадров : 32,003 кадра/сек (1500 SPF)
Битовая глубина : 16 бит
Размер потока : 50,8 Мбайт (23%)
Default : Да
Forced : Нет

Общее
Уникальный идентификатор : 241179319416629692699779707379955581682 (0xB5717283C4FA12079F946EEC4E8CC2F2)
Полное имя : D:\Фильмы\клипы\Песня года\Песня года 83-91 - Лучшее от ALEXnROCK mkv 2\065 Веселые ребята - Дама с собачкой.mkv
Формат : Matroska
Версия формата : Version 4 / Version 2
Размер файла : 190 Мбайт
Продолжительность : 3 м. 56 с.
Общий поток : 6737 Кбит/сек
Дата кодирования : UTC 2018-08-11 04:34:47
Программа кодирования : mkvmerge v9.8.0 ('Kuglblids') 64bit
Библиотека кодирования : libebml v1.3.4 + libmatroska v1.4.5

Видео
Идентификатор : 1
Формат : AVC
Формат/Информация : Advanced Video Codec
Профиль формата : High@L4
Настройки формата : CABAC / 4 Ref Frames
Параметр CABAC формата : Да
Параметр RefFrames формата : 4 кадра
Идентификатор кодека : V_MPEG4/ISO/AVC
Продолжительность : 3 м. 56 с.
Битрейт : 5200 Кбит/сек
Ширина : 1280 пикселей
Высота : 944 пикселя
Соотношение сторон : 4:3
Режим частоты кадров : Постоянный
Частота кадров : 25,000 кадров/сек
Цветовое пространство : YUV
Субдискретизация насыщенности : 4:2:0
Битовая глубина : 8 бит
Тип развёртки : Прогрессивная
Бит/(Пиксели*Кадры) : 0.172
Размер потока : 147 Мбайт (77%)
Библиотека кодирования : x264 core 146 r2538 121396c
Настройки программы : cabac=1 / ref=4 / deblock=1:-1:-1 / analyse=0x3:0x113 / me=umh / subme=7 / psy=1 / psy_rd=1.00:0.20 / mixed_ref=1 / me_range=16 / chroma_me=1 / trellis=2 / 8x8dct=1 / cqm=0 / deadzone=21,11 / fast_pskip=0 / chroma_qp_offset=-3 / threads=12 / lookahead_threads=2 / sliced_threads=0 / nr=0 / decimate=0 / interlaced=0 / bluray_compat=0 / constrained_intra=0 / bframes=3 / b_pyramid=2 / b_adapt=2 / b_bias=0 / direct=3 / weightb=1 / open_gop=0 / weightp=2 / keyint=250 / keyint_min=25 / scenecut=40 / intra_refresh=0 / rc_lookahead=50 / rc=2pass / mbtree=1 / bitrate=5200 / ratetol=1.0 / qcomp=0.60 / qpmin=0 / qpmax=69 / qpstep=4 / cplxblur=20.0 / qblur=0.5 / vbv_maxrate=50000 / vbv_bufsize=62500 / nal_hrd=none / filler=0 / ip_ratio=1.40 / aq=1:1.00
Default : Да
Forced : Нет

Аудио
Идентификатор : 2
Формат : PCM
Идентификатор кодека : A_PCM/INT/LIT
Продолжительность : 3 м. 56 с.
Вид битрейта : Постоянный
Битрейт : 1536 Кбит/сек
Каналы : 2 канала
Частота : 48,0 КГц
Частота кадров : 32,001 кадра/сек (1500 SPF)
Битовая глубина : 16 бит
Размер потока : 43,3 Мбайт (23%)
Default : Да
Forced : Нет

Общее
Уникальный идентификатор : 175974691614330119734188712991592292392 (0x84637E285DABBB1FA24A173873742028)
Полное имя : D:\Фильмы\клипы\Песня года\Песня года 83-91 - Лучшее от ALEXnROCK mkv 2\066 Лайма Вайкуле - Я за тебя молюсь.mkv
Формат : Matroska
Версия формата : Version 4 / Version 2
Размер файла : 204 Мбайт
Продолжительность : 4 м. 14 с.
Общий поток : 6737 Кбит/сек
Дата кодирования : UTC 2018-08-27 06:54:26
Программа кодирования : mkvmerge v9.8.0 ('Kuglblids') 64bit
Библиотека кодирования : libebml v1.3.4 + libmatroska v1.4.5

Видео
Идентификатор : 1
Формат : AVC
Формат/Информация : Advanced Video Codec
Профиль формата : High@L4
Настройки формата : CABAC / 4 Ref Frames
Параметр CABAC формата : Да
Параметр RefFrames формата : 4 кадра
Идентификатор кодека : V_MPEG4/ISO/AVC
Продолжительность : 4 м. 14 с.
Битрейт : 5200 Кбит/сек
Ширина : 1280 пикселей
Высота : 944 пикселя
Соотношение сторон : 4:3
Режим частоты кадров : Постоянный
Частота кадров : 25,000 кадров/сек
Цветовое пространство : YUV
Субдискретизация насыщенности : 4:2:0
Битовая глубина : 8 бит
Тип развёртки : Прогрессивная
Бит/(Пиксели*Кадры) : 0.172
Размер потока : 158 Мбайт (77%)
Библиотека кодирования : x264 core 146 r2538 121396c
Настройки программы : cabac=1 / ref=4 / deblock=1:-1:-1 / analyse=0x3:0x113 / me=umh / subme=7 / psy=1 / psy_rd=1.00:0.20 / mixed_ref=1 / me_range=16 / chroma_me=1 / trellis=2 / 8x8dct=1 / cqm=0 / deadzone=21,11 / fast_pskip=0 / chroma_qp_offset=-3 / threads=12 / lookahead_threads=2 / sliced_threads=0 / nr=0 / decimate=0 / interlaced=0 / bluray_compat=0 / constrained_intra=0 / bframes=3 / b_pyramid=2 / b_adapt=2 / b_bias=0 / direct=3 / weightb=1 / open_gop=0 / weightp=2 / keyint=250 / keyint_min=25 / scenecut=40 / intra_refresh=0 / rc_lookahead=50 / rc=2pass / mbtree=1 / bitrate=5200 / ratetol=1.0 / qcomp=0.60 / qpmin=0 / qpmax=69 / qpstep=4 / cplxblur=20.0 / qblur=0.5 / vbv_maxrate=50000 / vbv_bufsize=62500 / nal_hrd=none / filler=0 / ip_ratio=1.40 / aq=1:1.00
Default : Да
Forced : Нет

Аудио
Идентификатор : 2
Формат : PCM
Идентификатор кодека : A_PCM/INT/LIT
Продолжительность : 4 м. 14 с.
Вид битрейта : Постоянный
Битрейт : 1536 Кбит/сек
Каналы : 2 канала
Частота : 48,0 КГц
Частота кадров : 32,000 кадра/сек (1500 SPF)
Битовая глубина : 16 бит
Размер потока : 46,6 Мбайт (23%)
Default : Да
Forced : Нет

Общее
Уникальный идентификатор : 190133356245796912201699714398590935236 (0x8F0A5A38551151F7805F877EF7C120C4)
Полное имя : D:\Фильмы\клипы\Песня года\Песня года 83-91 - Лучшее от ALEXnROCK mkv 2\067 Игорь Корнелюк - Возвращайся.mkv
Формат : Matroska
Версия формата : Version 4 / Version 2
Размер файла : 204 Мбайт
Продолжительность : 4 м. 13 с.
Общий поток : 6733 Кбит/сек
Дата кодирования : UTC 2018-08-13 09:09:54
Программа кодирования : mkvmerge v9.8.0 ('Kuglblids') 64bit
Библиотека кодирования : libebml v1.3.4 + libmatroska v1.4.5

Видео
Идентификатор : 1
Формат : AVC
Формат/Информация : Advanced Video Codec
Профиль формата : High@L4
Настройки формата : CABAC / 4 Ref Frames
Параметр CABAC формата : Да
Параметр RefFrames формата : 4 кадра
Идентификатор кодека : V_MPEG4/ISO/AVC
Продолжительность : 4 м. 13 с.
Битрейт : 5200 Кбит/сек
Ширина : 1280 пикселей
Высота : 944 пикселя
Соотношение сторон : 4:3
Режим частоты кадров : Постоянный
Частота кадров : 25,000 кадров/сек
Цветовое пространство : YUV
Субдискретизация насыщенности : 4:2:0
Битовая глубина : 8 бит
Тип развёртки : Прогрессивная
Бит/(Пиксели*Кадры) : 0.172
Размер потока : 157 Мбайт (77%)
Библиотека кодирования : x264 core 146 r2538 121396c
Настройки программы : cabac=1 / ref=4 / deblock=1:-1:-1 / analyse=0x3:0x113 / me=umh / subme=7 / psy=1 / psy_rd=1.00:0.20 / mixed_ref=1 / me_range=16 / chroma_me=1 / trellis=2 / 8x8dct=1 / cqm=0 / deadzone=21,11 / fast_pskip=0 / chroma_qp_offset=-3 / threads=12 / lookahead_threads=2 / sliced_threads=0 / nr=0 / decimate=0 / interlaced=0 / bluray_compat=0 / constrained_intra=0 / bframes=3 / b_pyramid=2 / b_adapt=2 / b_bias=0 / direct=3 / weightb=1 / open_gop=0 / weightp=2 / keyint=250 / keyint_min=25 / scenecut=40 / intra_refresh=0 / rc_lookahead=50 / rc=2pass / mbtree=1 / bitrate=5200 / ratetol=1.0 / qcomp=0.60 / qpmin=0 / qpmax=69 / qpstep=4 / cplxblur=20.0 / qblur=0.5 / vbv_maxrate=50000 / vbv_bufsize=62500 / nal_hrd=none / filler=0 / ip_ratio=1.40 / aq=1:1.00
Default : Да
Forced : Нет

Аудио
Идентификатор : 2
Формат : PCM
Идентификатор кодека : A_PCM/INT/LIT
Продолжительность : 4 м. 13 с.
Вид битрейта : Постоянный
Битрейт : 1536 Кбит/сек
Каналы : 2 канала
Частота : 48,0 КГц
Частота кадров : 32,000 кадра/сек (1500 SPF)
Битовая глубина : 16 бит
Размер потока : 46,5 Мбайт (23%)
Default : Да
Forced : Нет

Общее
Уникальный идентификатор : 199541896833359780311918602159421745001 (0x961E5F15D90398A9B95457CC63396769)
Полное имя : D:\Фильмы\клипы\Песня года\Песня года 83-91 - Лучшее от ALEXnROCK mkv 2\068 Сергей Беликов - Снится мне деревня.mkv
Формат : Matroska
Версия формата : Version 4 / Version 2
Размер файла : 160 Мбайт
Продолжительность : 3 м. 19 с.
Общий поток : 6730 Кбит/сек
Дата кодирования : UTC 2018-08-12 07:37:33
Программа кодирования : mkvmerge v9.8.0 ('Kuglblids') 64bit
Библиотека кодирования : libebml v1.3.4 + libmatroska v1.4.5

Видео
Идентификатор : 1
Формат : AVC
Формат/Информация : Advanced Video Codec
Профиль формата : High@L4
Настройки формата : CABAC / 4 Ref Frames
Параметр CABAC формата : Да
Параметр RefFrames формата : 4 кадра
Идентификатор кодека : V_MPEG4/ISO/AVC
Продолжительность : 3 м. 19 с.
Битрейт : 5200 Кбит/сек
Ширина : 1280 пикселей
Высота : 936 пикселей
Соотношение сторон : 4:3
Режим частоты кадров : Постоянный
Частота кадров : 25,000 кадров/сек
Цветовое пространство : YUV
Субдискретизация насыщенности : 4:2:0
Битовая глубина : 8 бит
Тип развёртки : Прогрессивная
Бит/(Пиксели*Кадры) : 0.174
Размер потока : 124 Мбайт (77%)
Библиотека кодирования : x264 core 146 r2538 121396c
Настройки программы : cabac=1 / ref=4 / deblock=1:-1:-1 / analyse=0x3:0x113 / me=umh / subme=7 / psy=1 / psy_rd=1.00:0.20 / mixed_ref=1 / me_range=16 / chroma_me=1 / trellis=2 / 8x8dct=1 / cqm=0 / deadzone=21,11 / fast_pskip=0 / chroma_qp_offset=-3 / threads=12 / lookahead_threads=2 / sliced_threads=0 / nr=0 / decimate=0 / interlaced=0 / bluray_compat=0 / constrained_intra=0 / bframes=3 / b_pyramid=2 / b_adapt=2 / b_bias=0 / direct=3 / weightb=1 / open_gop=0 / weightp=2 / keyint=250 / keyint_min=25 / scenecut=40 / intra_refresh=0 / rc_lookahead=50 / rc=2pass / mbtree=1 / bitrate=5200 / ratetol=1.0 / qcomp=0.60 / qpmin=0 / qpmax=69 / qpstep=4 / cplxblur=20.0 / qblur=0.5 / vbv_maxrate=50000 / vbv_bufsize=62500 / nal_hrd=none / filler=0 / ip_ratio=1.40 / aq=1:1.00
Default : Да
Forced : Нет

Аудио
Идентификатор : 2
Формат : PCM
Идентификатор кодека : A_PCM/INT/LIT
Продолжительность : 3 м. 19 с.
Вид битрейта : Постоянный
Битрейт : 1536 Кбит/сек
Каналы : 2 канала
Частота : 48,0 КГц
Частота кадров : 32,004 кадра/сек (1500 SPF)
Битовая глубина : 16 бит
Размер потока : 36,5 Мбайт (23%)
Default : Да
Forced : Нет

Общее
Уникальный идентификатор : 223180313649852637862263992116297447804 (0xA7E6F7040DA5F2D984C8105B2E41B97C)
Полное имя : D:\Фильмы\клипы\Песня года\Песня года 83-91 - Лучшее от ALEXnROCK mkv 2\069 Алексей Глызин - Зимний сад.mkv
Формат : Matroska
Версия формата : Version 4 / Version 2
Размер файла : 215 Мбайт
Продолжительность : 4 м. 29 с.
Общий поток : 6699 Кбит/сек
Дата кодирования : UTC 2018-08-08 11:58:20
Программа кодирования : mkvmerge v9.8.0 ('Kuglblids') 64bit
Библиотека кодирования : libebml v1.3.4 + libmatroska v1.4.5

Видео
Идентификатор : 1
Формат : AVC
Формат/Информация : Advanced Video Codec
Профиль формата : High@L4
Настройки формата : CABAC / 4 Ref Frames
Параметр CABAC формата : Да
Параметр RefFrames формата : 4 кадра
Идентификатор кодека : V_MPEG4/ISO/AVC
Продолжительность : 4 м. 29 с.
Битрейт : 5200 Кбит/сек
Ширина : 1280 пикселей
Высота : 944 пикселя
Соотношение сторон : 4:3
Режим частоты кадров : Постоянный
Частота кадров : 25,000 кадров/сек
Цветовое пространство : YUV
Субдискретизация насыщенности : 4:2:0
Битовая глубина : 8 бит
Тип развёртки : Прогрессивная
Бит/(Пиксели*Кадры) : 0.172
Размер потока : 167 Мбайт (78%)
Библиотека кодирования : x264 core 146 r2538 121396c
Настройки программы : cabac=1 / ref=4 / deblock=1:-1:-1 / analyse=0x3:0x113 / me=umh / subme=7 / psy=1 / psy_rd=1.00:0.20 / mixed_ref=1 / me_range=16 / chroma_me=1 / trellis=2 / 8x8dct=1 / cqm=0 / deadzone=21,11 / fast_pskip=0 / chroma_qp_offset=-3 / threads=12 / lookahead_threads=2 / sliced_threads=0 / nr=0 / decimate=0 / interlaced=0 / bluray_compat=0 / constrained_intra=0 / bframes=3 / b_pyramid=2 / b_adapt=2 / b_bias=0 / direct=3 / weightb=1 / open_gop=0 / weightp=2 / keyint=250 / keyint_min=25 / scenecut=40 / intra_refresh=0 / rc_lookahead=50 / rc=2pass / mbtree=1 / bitrate=5200 / ratetol=1.0 / qcomp=0.60 / qpmin=0 / qpmax=69 / qpstep=4 / cplxblur=20.0 / qblur=0.5 / vbv_maxrate=50000 / vbv_bufsize=62500 / nal_hrd=none / filler=0 / ip_ratio=1.40 / aq=1:1.00
Default : Да
Forced : Нет

Аудио
Идентификатор : 2
Формат : PCM
Идентификатор кодека : A_PCM/INT/LIT
Продолжительность : 4 м. 22 с.
Вид битрейта : Постоянный
Битрейт : 1536 Кбит/сек
Каналы : 2 канала
Частота : 48,0 КГц
Частота кадров : 32,004 кадра/сек (1500 SPF)
Битовая глубина : 16 бит
Размер потока : 48,1 Мбайт (22%)
Default : Да
Forced : Нет

Общее
Уникальный идентификатор : 225692409535618803780808827885368367770 (0xA9CAC6E7CDF1F246BA69FC003E5FDA9A)
Полное имя : D:\Фильмы\клипы\Песня года\Песня года 83-91 - Лучшее от ALEXnROCK mkv 2\070 София Ротару - Золотое сердце.mkv
Формат : Matroska
Версия формата : Version 4 / Version 2
Размер файла : 220 Мбайт
Продолжительность : 4 м. 33 с.
Общий поток : 6742 Кбит/сек
Дата кодирования : UTC 2018-08-19 04:46:07
Программа кодирования : mkvmerge v9.8.0 ('Kuglblids') 64bit
Библиотека кодирования : libebml v1.3.4 + libmatroska v1.4.5

Видео
Идентификатор : 1
Формат : AVC
Формат/Информация : Advanced Video Codec
Профиль формата : High@L4
Настройки формата : CABAC / 4 Ref Frames
Параметр CABAC формата : Да
Параметр RefFrames формата : 4 кадра
Идентификатор кодека : V_MPEG4/ISO/AVC
Продолжительность : 4 м. 33 с.
Битрейт : 5200 Кбит/сек
Ширина : 1280 пикселей
Высота : 944 пикселя
Соотношение сторон : 4:3
Режим частоты кадров : Постоянный
Частота кадров : 25,000 кадров/сек
Цветовое пространство : YUV
Субдискретизация насыщенности : 4:2:0
Битовая глубина : 8 бит
Тип развёртки : Прогрессивная
Бит/(Пиксели*Кадры) : 0.172
Размер потока : 170 Мбайт (77%)
Библиотека кодирования : x264 core 146 r2538 121396c
Настройки программы : cabac=1 / ref=4 / deblock=1:-1:-1 / analyse=0x3:0x113 / me=umh / subme=7 / psy=1 / psy_rd=1.00:0.20 / mixed_ref=1 / me_range=16 / chroma_me=1 / trellis=2 / 8x8dct=1 / cqm=0 / deadzone=21,11 / fast_pskip=0 / chroma_qp_offset=-3 / threads=12 / lookahead_threads=2 / sliced_threads=0 / nr=0 / decimate=0 / interlaced=0 / bluray_compat=0 / constrained_intra=0 / bframes=3 / b_pyramid=2 / b_adapt=2 / b_bias=0 / direct=3 / weightb=1 / open_gop=0 / weightp=2 / keyint=250 / keyint_min=25 / scenecut=40 / intra_refresh=0 / rc_lookahead=50 / rc=2pass / mbtree=1 / bitrate=5200 / ratetol=1.0 / qcomp=0.60 / qpmin=0 / qpmax=69 / qpstep=4 / cplxblur=20.0 / qblur=0.5 / vbv_maxrate=50000 / vbv_bufsize=62500 / nal_hrd=none / filler=0 / ip_ratio=1.40 / aq=1:1.00
Default : Да
Forced : Нет

Аудио
Идентификатор : 2
Формат : PCM
Идентификатор кодека : A_PCM/INT/LIT
Продолжительность : 4 м. 33 с.
Вид битрейта : Постоянный
Битрейт : 1536 Кбит/сек
Каналы : 2 канала
Частота : 48,0 КГц
Частота кадров : 32,002 кадра/сек (1500 SPF)
Битовая глубина : 16 бит
Размер потока : 50,0 Мбайт (23%)
Default : Да
Forced : Нет

Общее
Уникальный идентификатор : 201130015450030066899989734174529515533 (0x97503B60E163CA7B9004222B8E51700D)
Полное имя : D:\Фильмы\клипы\Песня года\Песня года 83-91 - Лучшее от ALEXnROCK mkv 2\071 Маша Распутина и Вячеслав Добрынин - Льется музыка.mkv
Формат : Matroska
Версия формата : Version 4 / Version 2
Размер файла : 293 Мбайт
Продолжительность : 6 м. 4 с.
Общий поток : 6741 Кбит/сек
Дата кодирования : UTC 2018-08-26 12:30:13
Программа кодирования : mkvmerge v9.8.0 ('Kuglblids') 64bit
Библиотека кодирования : libebml v1.3.4 + libmatroska v1.4.5

Видео
Идентификатор : 1
Формат : AVC
Формат/Информация : Advanced Video Codec
Профиль формата : High@L4
Настройки формата : CABAC / 4 Ref Frames
Параметр CABAC формата : Да
Параметр RefFrames формата : 4 кадра
Идентификатор кодека : V_MPEG4/ISO/AVC
Продолжительность : 6 м. 4 с.
Битрейт : 5200 Кбит/сек
Ширина : 1280 пикселей
Высота : 944 пикселя
Соотношение сторон : 4:3
Режим частоты кадров : Постоянный
Частота кадров : 25,000 кадров/сек
Цветовое пространство : YUV
Субдискретизация насыщенности : 4:2:0
Битовая глубина : 8 бит
Тип развёртки : Прогрессивная
Бит/(Пиксели*Кадры) : 0.172
Размер потока : 226 Мбайт (77%)
Библиотека кодирования : x264 core 146 r2538 121396c
Настройки программы : cabac=1 / ref=4 / deblock=1:-1:-1 / analyse=0x3:0x113 / me=umh / subme=7 / psy=1 / psy_rd=1.00:0.20 / mixed_ref=1 / me_range=16 / chroma_me=1 / trellis=2 / 8x8dct=1 / cqm=0 / deadzone=21,11 / fast_pskip=0 / chroma_qp_offset=-3 / threads=12 / lookahead_threads=2 / sliced_threads=0 / nr=0 / decimate=0 / interlaced=0 / bluray_compat=0 / constrained_intra=0 / bframes=3 / b_pyramid=2 / b_adapt=2 / b_bias=0 / direct=3 / weightb=1 / open_gop=0 / weightp=2 / keyint=250 / keyint_min=25 / scenecut=40 / intra_refresh=0 / rc_lookahead=50 / rc=2pass / mbtree=1 / bitrate=5200 / ratetol=1.0 / qcomp=0.60 / qpmin=0 / qpmax=69 / qpstep=4 / cplxblur=20.0 / qblur=0.5 / vbv_maxrate=50000 / vbv_bufsize=62500 / nal_hrd=none / filler=0 / ip_ratio=1.40 / aq=1:1.00
Default : Да
Forced : Нет

Аудио
Идентификатор : 2
Формат : PCM
Идентификатор кодека : A_PCM/INT/LIT
Продолжительность : 6 м. 4 с.
Вид битрейта : Постоянный
Битрейт : 1536 Кбит/сек
Каналы : 2 канала
Частота : 48,0 КГц
Частота кадров : 32,001 кадра/сек (1500 SPF)
Битовая глубина : 16 бит
Размер потока : 66,7 Мбайт (23%)
Default : Да
Forced : Нет

Общее
Уникальный идентификатор : 237022759839709254714955149364224584750 (0xB250EC4E2983DE75AA78A697FEB3EC2E)
Полное имя : D:\Фильмы\клипы\Песня года\Песня года 83-91 - Лучшее от ALEXnROCK mkv 2\072 Юрий Лоза - Пой, моя гитара.mkv
Формат : Matroska
Версия формата : Version 4 / Version 2
Размер файла : 224 Мбайт
Продолжительность : 4 м. 38 с.
Общий поток : 6743 Кбит/сек
Дата кодирования : UTC 2018-08-07 09:41:24
Программа кодирования : mkvmerge v9.8.0 ('Kuglblids') 64bit
Библиотека кодирования : libebml v1.3.4 + libmatroska v1.4.5

Видео
Идентификатор : 1
Формат : AVC
Формат/Информация : Advanced Video Codec
Профиль формата : High@L4
Настройки формата : CABAC / 4 Ref Frames
Параметр CABAC формата : Да
Параметр RefFrames формата : 4 кадра
Идентификатор кодека : V_MPEG4/ISO/AVC
Продолжительность : 4 м. 38 с.
Битрейт : 5200 Кбит/сек
Ширина : 1280 пикселей
Высота : 944 пикселя
Соотношение сторон : 4:3
Режим частоты кадров : Постоянный
Частота кадров : 25,000 кадров/сек
Цветовое пространство : YUV
Субдискретизация насыщенности : 4:2:0
Битовая глубина : 8 бит
Тип развёртки : Прогрессивная
Бит/(Пиксели*Кадры) : 0.172
Размер потока : 173 Мбайт (77%)
Библиотека кодирования : x264 core 146 r2538 121396c
Настройки программы : cabac=1 / ref=4 / deblock=1:-1:-1 / analyse=0x3:0x113 / me=umh / subme=7 / psy=1 / psy_rd=1.00:0.20 / mixed_ref=1 / me_range=16 / chroma_me=1 / trellis=2 / 8x8dct=1 / cqm=0 / deadzone=21,11 / fast_pskip=0 / chroma_qp_offset=-3 / threads=12 / lookahead_threads=2 / sliced_threads=0 / nr=0 / decimate=0 / interlaced=0 / bluray_compat=0 / constrained_intra=0 / bframes=3 / b_pyramid=2 / b_adapt=2 / b_bias=0 / direct=3 / weightb=1 / open_gop=0 / weightp=2 / keyint=250 / keyint_min=25 / scenecut=40 / intra_refresh=0 / rc_lookahead=50 / rc=2pass / mbtree=1 / bitrate=5200 / ratetol=1.0 / qcomp=0.60 / qpmin=0 / qpmax=69 / qpstep=4 / cplxblur=20.0 / qblur=0.5 / vbv_maxrate=50000 / vbv_bufsize=62500 / nal_hrd=none / filler=0 / ip_ratio=1.40 / aq=1:1.00
Default : Да
Forced : Нет

Аудио
Идентификатор : 2
Формат : PCM
Идентификатор кодека : A_PCM/INT/LIT
Продолжительность : 4 м. 38 с.
Вид битрейта : Постоянный
Битрейт : 1536 Кбит/сек
Каналы : 2 канала
Частота : 48,0 КГц
Частота кадров : 32,003 кадра/сек (1500 SPF)
Битовая глубина : 16 бит
Размер потока : 51,0 Мбайт (23%)
Default : Да
Forced : Нет

Общее
Уникальный идентификатор : 210821116020494645016317851349122375698 (0x9E9AAB86C731AD36920E328861316012)
Полное имя : D:\Фильмы\клипы\Песня года\Песня года 83-91 - Лучшее от ALEXnROCK mkv 2\073 Ирина Понаровская - Я больше не хочу.mkv
Формат : Matroska
Версия формата : Version 4 / Version 2
Размер файла : 270 Мбайт
Продолжительность : 5 м. 36 с.
Общий поток : 6737 Кбит/сек
Дата кодирования : UTC 2018-08-16 10:00:42
Программа кодирования : mkvmerge v9.8.0 ('Kuglblids') 64bit
Библиотека кодирования : libebml v1.3.4 + libmatroska v1.4.5

Видео
Идентификатор : 1
Формат : AVC
Формат/Информация : Advanced Video Codec
Профиль формата : High@L4
Настройки формата : CABAC / 4 Ref Frames
Параметр CABAC формата : Да
Параметр RefFrames формата : 4 кадра
Идентификатор кодека : V_MPEG4/ISO/AVC
Продолжительность : 5 м. 36 с.
Битрейт : 5200 Кбит/сек
Ширина : 1280 пикселей
Высота : 944 пикселя
Соотношение сторон : 4:3
Режим частоты кадров : Постоянный
Частота кадров : 25,000 кадров/сек
Цветовое пространство : YUV
Субдискретизация насыщенности : 4:2:0
Битовая глубина : 8 бит
Тип развёртки : Прогрессивная
Бит/(Пиксели*Кадры) : 0.172
Размер потока : 208 Мбайт (77%)
Библиотека кодирования : x264 core 146 r2538 121396c
Настройки программы : cabac=1 / ref=4 / deblock=1:-1:-1 / analyse=0x3:0x113 / me=umh / subme=7 / psy=1 / psy_rd=1.00:0.20 / mixed_ref=1 / me_range=16 / chroma_me=1 / trellis=2 / 8x8dct=1 / cqm=0 / deadzone=21,11 / fast_pskip=0 / chroma_qp_offset=-3 / threads=12 / lookahead_threads=2 / sliced_threads=0 / nr=0 / decimate=0 / interlaced=0 / bluray_compat=0 / constrained_intra=0 / bframes=3 / b_pyramid=2 / b_adapt=2 / b_bias=0 / direct=3 / weightb=1 / open_gop=0 / weightp=2 / keyint=250 / keyint_min=25 / scenecut=40 / intra_refresh=0 / rc_lookahead=50 / rc=2pass / mbtree=1 / bitrate=5200 / ratetol=1.0 / qcomp=0.60 / qpmin=0 / qpmax=69 / qpstep=4 / cplxblur=20.0 / qblur=0.5 / vbv_maxrate=50000 / vbv_bufsize=62500 / nal_hrd=none / filler=0 / ip_ratio=1.40 / aq=1:1.00
Default : Да
Forced : Нет

Аудио
Идентификатор : 2
Формат : PCM
Идентификатор кодека : A_PCM/INT/LIT
Продолжительность : 5 м. 36 с.
Вид битрейта : Постоянный
Битрейт : 1536 Кбит/сек
Каналы : 2 канала
Частота : 48,0 КГц
Частота кадров : 32,000 кадра/сек (1500 SPF)
Битовая глубина : 16 бит
Размер потока : 61,5 Мбайт (23%)
Default : Да
Forced : Нет

Общее
Уникальный идентификатор : 186863060183111009078867099613106793884 (0x8C94842CEF470A4D937917028333ED9C)
Полное имя : D:\Фильмы\клипы\Песня года\Песня года 83-91 - Лучшее от ALEXnROCK mkv 2\074 Вячеслав Малежик - Провинциалка.mkv
Формат : Matroska
Версия формата : Version 4 / Version 2
Размер файла : 152 Мбайт
Продолжительность : 3 м. 9 с.
Общий поток : 6737 Кбит/сек
Дата кодирования : UTC 2018-08-12 09:52:46
Программа кодирования : mkvmerge v9.8.0 ('Kuglblids') 64bit
Библиотека кодирования : libebml v1.3.4 + libmatroska v1.4.5

Видео
Идентификатор : 1
Формат : AVC
Формат/Информация : Advanced Video Codec
Профиль формата : High@L4
Настройки формата : CABAC / 4 Ref Frames
Параметр CABAC формата : Да
Параметр RefFrames формата : 4 кадра
Идентификатор кодека : V_MPEG4/ISO/AVC
Продолжительность : 3 м. 9 с.
Битрейт : 5200 Кбит/сек
Ширина : 1280 пикселей
Высота : 944 пикселя
Соотношение сторон : 4:3
Режим частоты кадров : Постоянный
Частота кадров : 25,000 кадров/сек
Цветовое пространство : YUV
Субдискретизация насыщенности : 4:2:0
Битовая глубина : 8 бит
Тип развёртки : Прогрессивная
Бит/(Пиксели*Кадры) : 0.172
Размер потока : 118 Мбайт (77%)
Библиотека кодирования : x264 core 146 r2538 121396c
Настройки программы : cabac=1 / ref=4 / deblock=1:-1:-1 / analyse=0x3:0x113 / me=umh / subme=7 / psy=1 / psy_rd=1.00:0.20 / mixed_ref=1 / me_range=16 / chroma_me=1 / trellis=2 / 8x8dct=1 / cqm=0 / deadzone=21,11 / fast_pskip=0 / chroma_qp_offset=-3 / threads=12 / lookahead_threads=2 / sliced_threads=0 / nr=0 / decimate=0 / interlaced=0 / bluray_compat=0 / constrained_intra=0 / bframes=3 / b_pyramid=2 / b_adapt=2 / b_bias=0 / direct=3 / weightb=1 / open_gop=0 / weightp=2 / keyint=250 / keyint_min=25 / scenecut=40 / intra_refresh=0 / rc_lookahead=50 / rc=2pass / mbtree=1 / bitrate=5200 / ratetol=1.0 / qcomp=0.60 / qpmin=0 / qpmax=69 / qpstep=4 / cplxblur=20.0 / qblur=0.5 / vbv_maxrate=50000 / vbv_bufsize=62500 / nal_hrd=none / filler=0 / ip_ratio=1.40 / aq=1:1.00
Default : Да
Forced : Нет

Аудио
Идентификатор : 2
Формат : PCM
Идентификатор кодека : A_PCM/INT/LIT
Продолжительность : 3 м. 9 с.
Вид битрейта : Постоянный
Битрейт : 1536 Кбит/сек
Каналы : 2 канала
Частота : 48,0 КГц
Частота кадров : 32,000 кадра/сек (1500 SPF)
Битовая глубина : 16 бит
Размер потока : 34,7 Мбайт (23%)
Default : Да
Forced : Нет

Общее
Полное имя : D:\Фильмы\клипы\Песня года\Песня года 83-91 - Лучшее от ALEXnROCK mkv 2\covers\blin pesna 2.jpg
Формат : JPEG
Размер файла : 16,4 Мбайт

Изображения
Формат : JPEG
Ширина : 5001 пикселей
Высота : 5001 пикселей
Цветовое пространство : YUV
Субдискретизация насыщенности : 4:4:4
Битовая глубина : 8 бит
Метод сжатия : С потерями
Размер потока : 16,4 Мбайт (100%)

Общее
Полное имя : D:\Фильмы\клипы\Песня года\Песня года 83-91 - Лучшее от ALEXnROCK mkv 2\covers\cover pesna 2 mkv.jpg
Формат : JPEG
Размер файла : 58,7 Мбайт

Изображения
Формат : JPEG
Ширина : 10008 пикселей
Высота : 6706 пикселей
Цветовое пространство : YUV
Субдискретизация насыщенности : 4:4:4
Битовая глубина : 8 бит
Метод сжатия : С потерями
Размер потока : 58,7 Мбайт (100%)
Скриншоты:


Другие релизы от ALEXnROCK в Клубе
Детали торрента:
Название:Песня года (лучшее 1983 - 1991) - Видеоколлекция от ALEXnROCK часть 2 WEBRip [H.264/720p-LQ]
Дата добавления:05 Сен 2018 13:39:11
Размер:7,65 GB
Раздают:13
Качают:1
Форум:hand made * video

All rights reserved © 2015-2018